<?xml version="1.0" standalone="no"?>
<!DOCTYPE svg PUBLIC "-//W3C//DTD SVG 1.1//EN" "http://www.w3.org/Graphics/SVG/1.1/DTD/svg11.dtd" >
<svg xmlns="http://www.w3.org/2000/svg" xmlns:xlink="http://www.w3.org/1999/xlink" version="1.1">
<metadata>
Created by FontForge 20190801 at Fri Apr 29 23:32:12 2022
 By www-data
Copyright 2015 The Public Sans Project Authors (https://github.com/uswds/public-sans)
</metadata>
<defs>
<font id="PublicSansSemiBoldItalic" horiz-adv-x="0" >
  <font-face 
    font-family="PublicSansSemiBoldItalic"
    font-weight="600"
    font-style="italic"
    font-stretch="normal"
    units-per-em="2000"
    panose-1="0 0 0 0 0 0 0 0 0 0"
    ascent="1600"
    descent="-400"
    x-height="1034"
    cap-height="1446"
    bbox="-398 -480 2344 2144"
    underline-thickness="140"
    underline-position="-440"
    slope="-8"
    unicode-range="U+000D-FB02"
  />
<missing-glyph horiz-adv-x="1607" 
d="M367 1652h918q36 0 36 -42v-1876q0 -56 -66 -56h-872q-31 0 -42.5 12t-11.5 36v1880q0 46 38 46zM1219 -114v1634q0 34 -31 34h-685zM431 1433v-1617q0 -19 9.5 -29.5t34.5 -10.5h671z" />
    <glyph glyph-name="fi" unicode="fi" horiz-adv-x="1284" 
d="M178 0l125 862h-194l26 172h193l23 154q19 124 95 191t202 67h211l-24 -166h-136q-58 0 -83.5 -30.5t-35.5 -95.5l-17 -120h227l-26 -172h-222l-126 -862h-238zM839 0l146 1034h231l-145 -1034h-232zM1008 1216l32 230h237l-32 -230h-237z" />
    <glyph glyph-name="fl" unicode="fl" horiz-adv-x="1394" 
d="M178 0l125 862h-194l26 172h193l23 154q19 124 95 191t202 67h211l-24 -166h-136q-58 0 -83.5 -30.5t-35.5 -95.5l-17 -120h227l-26 -172h-222l-126 -862h-238zM1123 -15q-97 0 -152 25t-77.5 67t-24.5 94.5t6 107.5l177 1207h236l-173 -1179q-10 -67 11 -104t80 -43
l48 -2l-22 -153q-28 -8 -57 -14t-52 -6z" />
    <glyph glyph-name=".notdef" horiz-adv-x="1607" 
d="M367 1652h918q36 0 36 -42v-1876q0 -56 -66 -56h-872q-31 0 -42.5 12t-11.5 36v1880q0 46 38 46zM1219 -114v1634q0 34 -31 34h-685zM431 1433v-1617q0 -19 9.5 -29.5t34.5 -10.5h671z" />
    <glyph glyph-name="uni0000" horiz-adv-x="53" 
 />
    <glyph glyph-name="uni0000" horiz-adv-x="53" 
 />
    <glyph glyph-name="nonmarkingreturn" horiz-adv-x="666" 
 />
    <glyph glyph-name="CR" unicode="&#xd;" horiz-adv-x="472" 
 />
    <glyph glyph-name="space" unicode=" " horiz-adv-x="467" 
 />
    <glyph glyph-name="exclam" unicode="!" horiz-adv-x="531" 
d="M162 410l86 1036h282l-214 -1036h-154zM42 0l42 276h268l-41 -276h-269z" />
    <glyph glyph-name="quotedbl" unicode="&#x22;" horiz-adv-x="903" 
d="M643 929l11 517h258l-143 -517h-126zM243 929l11 517h258l-143 -517h-126z" />
    <glyph glyph-name="numbersign" unicode="#" horiz-adv-x="1181" 
d="M790 -4l-135 18l215 1435l135 -14zM74 458v135h1019v-135h-1019zM372 -4l-134 18l215 1435l134 -14zM138 868v135h1019v-135h-1019z" />
    <glyph glyph-name="dollar" unicode="$" horiz-adv-x="1299" 
d="M593 -20q-237 0 -373.5 102t-129.5 308l250 9q11 -110 85.5 -165.5t196.5 -55.5q74 0 138 26t106 72t51 106q13 87 -31.5 134.5t-148.5 74.5l-224 58q-151 37 -230 130.5t-57 251.5q18 131 100.5 228.5t209.5 151t278 53.5t252.5 -57.5t147 -153.5t29.5 -211l-243 -8
q-1 74 -21.5 126t-67 79t-125.5 27q-77 0 -141.5 -24.5t-107 -71.5t-51.5 -112q-10 -70 29.5 -110.5t157.5 -77.5l217 -62q177 -49 240.5 -160t41.5 -264q-18 -121 -96 -211.5t-202 -141.5t-281 -51zM459 -199l38 259h210l-38 -259h-210zM699 1398l38 259h212l-38 -259h-212
z" />
    <glyph glyph-name="percent" unicode="%" horiz-adv-x="1716" 
d="M369 -8l-145 2l1152 1468h142zM445 645q-83 0 -145.5 42.5t-97 116t-34.5 169.5q0 70 23.5 155t71.5 162.5t122 127.5t175 50q82 0 143 -42.5t95.5 -117t34.5 -171.5q0 -80 -25.5 -166t-75 -160t-121.5 -120t-166 -46zM460 774q59 0 99 40.5t63.5 102t34 126t10.5 111.5
q0 87 -29.5 137t-97.5 50q-57 0 -96.5 -41t-64 -103t-35.5 -126.5t-11 -110.5q0 -86 29.5 -136t97.5 -50zM1205 -20q-83 0 -145 42t-96.5 115.5t-34.5 169.5q0 82 26.5 169t77 161t123 120.5t164.5 46.5q82 0 143.5 -43t96 -117t34.5 -171q0 -80 -25.5 -166t-75 -160.5
t-122 -120.5t-166.5 -46zM1220 109q60 0 99.5 40.5t63 102t34 125.5t10.5 111q0 87 -29.5 137.5t-97.5 50.5q-56 0 -95.5 -41.5t-64 -103.5t-35 -126.5t-10.5 -109.5q0 -86 29 -136t96 -50z" />
    <glyph glyph-name="ampersand" unicode="&#x26;" horiz-adv-x="1450" 
d="M450 -10q-146 0 -235.5 47.5t-125.5 131.5t-20 194q14 97 63 173.5t134.5 141.5t209.5 128q-44 58 -74.5 110t-43.5 105.5t-4 117.5q15 93 75 167.5t154 118t209 43.5q112 0 198.5 -39t131 -109t30.5 -164q-8 -57 -48.5 -121t-119.5 -131.5t-204 -135.5l206 -313
q20 28 50 79.5t59.5 120t46.5 147.5h243q-34 -95 -85 -180t-108.5 -162t-110.5 -148l211 -312h-275l-103 150q-122 -87 -240.5 -123.5t-223.5 -36.5zM535 179q66 0 143.5 31t140.5 86l-247 368q-93 -51 -161.5 -124t-73.5 -166q-5 -92 55.5 -143.5t142.5 -51.5zM697 895
q90 52 141 94.5t73.5 81t27.5 77.5q9 59 -12.5 96t-61 53.5t-87.5 15.5q-76 -1 -125.5 -47.5t-58.5 -110.5q-6 -40 4.5 -80.5t29.5 -76t39 -62.5z" />
    <glyph glyph-name="quotesingle" unicode="'" horiz-adv-x="504" 
d="M243 929l11 517h258l-143 -517h-126z" />
    <glyph glyph-name="parenleft" unicode="(" horiz-adv-x="630" 
d="M278 -269q-60 141 -99 277.5t-50.5 283.5t13.5 317q37 249 146 477t258 413h167q-126 -194 -222 -423.5t-131 -468.5q-32 -226 -9 -438t93 -438h-166z" />
    <glyph glyph-name="parenright" unicode=")" horiz-adv-x="639" 
d="M-80 -270q127 195 222.5 424.5t130.5 467.5q33 227 9.5 438.5t-93.5 437.5h166q60 -141 99 -277.5t50.5 -283.5t-13.5 -317q-36 -249 -145 -476.5t-259 -413.5h-167z" />
    <glyph glyph-name="asterisk" unicode="*" horiz-adv-x="873" 
d="M356 702l-135 94l198 241l-279 78l52 146l266 -112l-21 297h166l-22 -298l269 118l47 -146l-273 -82l194 -235l-137 -96l-160 264z" />
    <glyph glyph-name="plus" unicode="+" horiz-adv-x="1115" 
d="M433 274l133 908h177l-132 -908h-178zM136 636l27 181l875 1l-27 -181z" />
    <glyph glyph-name="comma" unicode="," horiz-adv-x="516" 
d="M-20 -267l148 261l-91 7l38 255h258l-33 -223l-225 -300h-95z" />
    <glyph glyph-name="hyphen" unicode="-" horiz-adv-x="752" 
d="M109 424l26 182l508 1l-26 -182z" />
    <glyph glyph-name="period" unicode="." horiz-adv-x="495" 
d="M31 0l42 280h268l-42 -280h-268z" />
    <glyph glyph-name="slash" unicode="/" horiz-adv-x="718" 
d="M-56 -55l703 1501h172l-702 -1501h-173z" />
    <glyph glyph-name="zero" unicode="0" horiz-adv-x="1227" 
d="M538 -22q-244 0 -356 189t-62 551q35 244 122 410.5t216.5 252t290.5 85.5q240 0 353 -190.5t62 -555.5q-51 -363 -217 -552.5t-409 -189.5zM568 181q135 0 217.5 125t123.5 413q41 294 -7.5 422t-181.5 128q-134 0 -220 -129t-127 -421q-40 -287 10 -412.5t185 -125.5z
" />
    <glyph glyph-name="one" unicode="1" horiz-adv-x="822" 
d="M266 0l164 1114h-256l21 145q121 0 196.5 21.5t115 63.5t53.5 102h162l-213 -1446h-243z" />
    <glyph glyph-name="two" unicode="2" horiz-adv-x="1203" 
d="M44 0l18 130l10 67q18 129 83.5 218t157.5 152.5t193.5 113.5t191.5 99.5t152 111t74 148.5q14 97 -42.5 158.5t-168.5 61.5q-78 0 -143.5 -32t-112.5 -92.5t-69 -146.5h-232q20 132 94.5 240t200 172.5t298.5 64.5q151 0 253 -53.5t148 -149t27 -222.5
q-18 -129 -82 -216.5t-154.5 -147.5t-189 -106.5t-187 -92.5t-148.5 -104.5t-72 -144.5l-3 -21h722l-30 -208h-989z" />
    <glyph glyph-name="three" unicode="3" horiz-adv-x="1265" 
d="M533 -22q-158 1 -265.5 56t-156 157t-31.5 242h234q2 -129 71 -191.5t180 -62.5q94 0 165.5 29.5t116 81.5t53.5 121q10 73 -22 125t-96 80t-151 30l-129 4l28 198l121 5q82 3 148.5 33t109 79t51.5 110q8 56 -19.5 101t-84 70.5t-138.5 25.5q-70 0 -135 -26t-112 -83.5
t-65 -150.5h-232q21 148 104 249.5t206.5 153t265.5 51.5q151 0 263 -42.5t167.5 -127.5t37.5 -211q-15 -107 -89.5 -191t-215.5 -132q80 -24 139.5 -71.5t89 -118.5t15.5 -167q-15 -103 -69.5 -183t-139 -134.5t-191 -82t-224.5 -27.5z" />
    <glyph glyph-name="four" unicode="4" horiz-adv-x="1246" 
d="M658 0l51 343h-644l31 207l768 896h237l-129 -896h219l-31 -207h-221l-49 -343h-232zM319 550h420l86 594z" />
    <glyph glyph-name="five" unicode="5" horiz-adv-x="1283" 
d="M587 -22q-135 0 -242.5 45.5t-180 125.5t-98.5 183l209 104q26 -74 67 -133t102.5 -92.5t148.5 -33.5q134 0 227 78.5t111 209.5q12 81 -17 144t-89 98.5t-142 35.5q-49 0 -92.5 -9t-89.5 -33.5t-103 -73.5q-11 -5 -15.5 -4.5t-15.5 5.5l-171 76l167 742h872l-38 -203
h-667l-87 -402q81 54 159.5 78t167.5 24q134 0 235.5 -54t151.5 -159t28 -257q-20 -152 -101 -263t-208.5 -171.5t-288.5 -60.5z" />
    <glyph glyph-name="six" unicode="6" horiz-adv-x="1253" 
d="M573 -22q-172 0 -284.5 88t-157.5 249.5t-14 382.5q33 235 124.5 407.5t232.5 266.5t321 94q125 0 224.5 -47.5t154.5 -136.5t48 -215h-222q-13 97 -71 150t-157 53q-109 0 -191.5 -65t-132 -186.5t-60.5 -290.5q39 59 95.5 102.5t125 67.5t140.5 24q140 0 238 -55
t142.5 -156t25.5 -239q-20 -143 -100 -254.5t-204 -175.5t-278 -64zM594 169q74 0 139 37t108.5 103t55.5 152q13 88 -11.5 149t-79 93t-134.5 32q-66 0 -131.5 -32t-111.5 -83t-54 -109q-16 -103 6.5 -180t77.5 -119.5t135 -42.5z" />
    <glyph glyph-name="seven" unicode="7" horiz-adv-x="1192" 
d="M261 0q24 93 79 232.5t140.5 308t202.5 348.5t265 354h-757l30 203h1013l-33 -203q-82 -95 -169 -219.5t-170 -263t-153 -277t-120 -263.5t-70 -220h-258z" />
    <glyph glyph-name="eight" unicode="8" horiz-adv-x="1285" 
d="M566 -21q-165 0 -281.5 51.5t-172 145.5t-37.5 221q12 83 62.5 159t120.5 128.5t138 66.5q-84 42 -133.5 120.5t-32.5 193.5q18 129 94.5 218.5t194 136t256.5 46.5q140 0 244 -46.5t155.5 -136t33.5 -218.5q-16 -115 -87 -193.5t-167 -120.5q64 -14 119.5 -66.5
t85 -128.5t17.5 -159q-17 -127 -99 -221t-213 -145.5t-298 -51.5zM593 167q136 0 224 64t102 171q11 71 -17.5 125.5t-90 85.5t-152.5 31q-89 0 -159.5 -31t-113.5 -85.5t-54 -125.5q-14 -107 56 -171t205 -64zM688 848q109 0 186.5 58.5t91.5 163.5q16 104 -45.5 165
t-169.5 61t-185.5 -61t-92.5 -165q-14 -105 47 -163.5t168 -58.5z" />
    <glyph glyph-name="nine" unicode="9" horiz-adv-x="1253" 
d="M510 -22q-124 0 -225 49t-157.5 139t-50.5 212h230q7 -91 65.5 -147.5t156.5 -56.5q110 0 198.5 57t146.5 179t73 317q-34 -64 -90 -112t-127.5 -74.5t-154.5 -26.5q-140 0 -240 55.5t-146.5 159t-26.5 245.5q21 144 99 255t201 174t277 63q172 0 284.5 -87t157 -248
t12.5 -382q-35 -252 -127 -423.5t-233 -259.5t-323 -88zM639 712q67 0 133 32t112 83t53 108q16 104 -6.5 180.5t-77 119t-135.5 42.5q-73 0 -135.5 -37t-104.5 -102.5t-55 -151.5q-18 -128 39.5 -201t176.5 -73z" />
    <glyph glyph-name="colon" unicode=":" horiz-adv-x="500" 
d="M137 724l42 278h269l-41 -278h-270zM32 6l41 276h269l-41 -276h-269z" />
    <glyph glyph-name="semicolon" unicode=";" horiz-adv-x="522" 
d="M-10 -298l162 298h-97l40 277h270l-36 -245l-241 -330h-98zM155 717l41 281h269l-41 -281h-269z" />
    <glyph glyph-name="less" unicode="&#x3c;" horiz-adv-x="1098" 
d="M933 240l-804 344l30 209l907 348l-32 -216l-621 -238l551 -233z" />
    <glyph glyph-name="equal" unicode="=" horiz-adv-x="1120" 
d="M167 828l27 181l875 1l-27 -181zM100 376l27 182l875 1l-27 -182z" />
    <glyph glyph-name="greater" unicode="&#x3e;" horiz-adv-x="1098" 
d="M81 240l34 214l619 233l-553 238l32 216l805 -348l-31 -209z" />
    <glyph glyph-name="question" unicode="?" horiz-adv-x="1021" 
d="M364 415q16 112 61.5 194t104 145.5t116 118t99 111.5t52.5 127q12 84 -39.5 133t-141.5 49q-56 0 -113 -24.5t-105 -68t-77 -100.5l-199 55q84 149 219.5 230t302.5 81q134 0 227.5 -45.5t137 -123t29.5 -174.5q-15 -100 -63.5 -171.5t-112.5 -129.5t-128.5 -115
t-112.5 -126.5t-62 -165.5h-195zM266 0l41 276h269l-41 -276h-269z" />
    <glyph glyph-name="at" unicode="@" horiz-adv-x="1601" 
d="M705 -220q-172 0 -298.5 57t-206 157.5t-110 232.5t-8.5 282q24 158 98 298.5t190.5 249t266 170t323.5 61.5q125 0 238.5 -36t199 -112t125 -194.5t15.5 -283.5q-22 -149 -86.5 -262.5t-156 -177.5t-198.5 -64q-78 0 -115 28t-47 69q-5 13 -8.5 12.5t-14.5 -11.5
q-50 -54 -118 -90t-154 -36q-76 0 -132.5 42.5t-82 120.5t-9.5 182q17 121 78.5 224t154 165t204.5 62q78 0 122.5 -31t69.5 -78q3 -5 7.5 -3.5t8.5 10.5l19 52h144l-133 -437q-23 -76 -10 -105t53 -29q50 0 101 39.5t91 116.5t56 189q20 137 -10 232t-96 153t-154.5 84
t-184.5 26q-152 0 -273 -50t-209 -138t-142 -203t-73 -244q-19 -133 5 -242t89.5 -188t171 -121.5t247.5 -42.5q87 0 149 16.5t114 44.5t105 61l61 -107q-85 -64 -208.5 -107.5t-268.5 -43.5zM706 286q56 0 108 35t90.5 92.5t53.5 122.5q19 73 7.5 125.5t-44 81t-79.5 28.5
q-59 0 -111 -38t-88.5 -101t-48.5 -141q-13 -89 15 -147t97 -58z" />
    <glyph glyph-name="A" unicode="A" horiz-adv-x="1394" 
d="M-3 0l711 1446h257l286 -1446h-239l-69 363h-527l-178 -363h-241zM503 579h412l-112 630z" />
    <glyph glyph-name="B" unicode="B" horiz-adv-x="1318" 
d="M102 0l212 1446h479q265 0 382 -98t91 -282q-17 -110 -83 -190.5t-212 -136.5q81 -21 130.5 -57.5t73 -83.5t28.5 -100.5t-3 -109.5q-29 -197 -174.5 -292.5t-422.5 -95.5h-501zM371 194h262q144 0 228.5 56.5t99.5 161.5q11 76 -18.5 124.5t-89 72.5t-137.5 24h-281z
M463 830h280q47 0 94.5 11.5t88 35.5t68 64t36.5 97q16 109 -53.5 162t-192.5 53h-259z" />
    <glyph glyph-name="C" unicode="C" horiz-adv-x="1376" 
d="M642 -20q-179 0 -298.5 80.5t-174.5 231t-40 361.5q11 171 62.5 319t142.5 259t221 173t298 62q151 0 259.5 -62t166 -171.5t55.5 -250.5h-252q-3 80 -33.5 143t-88 100t-145.5 37q-103 0 -178.5 -49t-127 -134.5t-80.5 -197t-39 -239.5q-21 -236 51 -347t224 -111
q88 0 156.5 40.5t116.5 108t73 147.5h253q-25 -98 -74.5 -188t-124.5 -160.5t-180 -111t-243 -40.5z" />
    <glyph glyph-name="D" unicode="D" horiz-adv-x="1384" 
d="M103 0l207 1446q8 0 68.5 -0.5t135.5 -0.5q139 0 262 -14t222.5 -48.5t171.5 -97.5t110.5 -161.5t38.5 -239.5q0 -95 -15.5 -196.5t-52 -200.5t-99 -186.5t-156 -155t-222.5 -106.5t-300 -39h-371zM377 201h119q145 0 253 52t179.5 144t107 215t35.5 265q0 134 -48 215
t-139 117t-219 36h-137z" />
    <glyph glyph-name="E" unicode="E" horiz-adv-x="1231" 
d="M102 0l213 1446h921l-32 -209h-680l-59 -405h599l-30 -206h-600l-61 -414l696 -1l-32 -211h-935z" />
    <glyph glyph-name="F" unicode="F" horiz-adv-x="1184" 
d="M103 0l212 1446h911l-31 -206h-669l-59 -416h588l-31 -203h-587l-91 -621h-243z" />
    <glyph glyph-name="G" unicode="G" horiz-adv-x="1455" 
d="M635 -20q-188 0 -312 89t-174.5 254.5t-16.5 395.5q35 232 137 400t255 257.5t342 89.5q155 0 266.5 -68.5t168 -179.5t43.5 -236h-253q-2 74 -33.5 136.5t-89 100.5t-139.5 38q-104 0 -193 -55t-152.5 -172.5t-91.5 -304.5q-21 -148 -7 -249.5t56.5 -163t105.5 -89
t137 -27.5q72 0 131 26t103 68t72.5 90.5t38.5 94.5l25 106h-308l26 172l558 -2l-109 -751h-170l29 203q-44 -55 -105 -106t-144.5 -84t-195.5 -33z" />
    <glyph glyph-name="H" unicode="H" horiz-adv-x="1499" 
d="M102 0l204 1446h240l-84 -597h668l84 597h240l-203 -1446h-241l91 642h-668l-90 -642h-241z" />
    <glyph glyph-name="I" unicode="I" horiz-adv-x="598" 
d="M103 0l211 1446h240l-211 -1446h-240z" />
    <glyph glyph-name="J" unicode="J" horiz-adv-x="781" 
d="M228 -20q-69 0 -135 14.5t-93 23.5l41 226q28 -9 63.5 -21.5t84.5 -12.5q96 0 138 54t59 177l148 1005h238l-156 -1071q-19 -129 -59.5 -216.5t-118.5 -133t-210 -45.5z" />
    <glyph glyph-name="K" unicode="K" horiz-adv-x="1365" 
d="M102 0l213 1446h248l-101 -701l654 701h277l-518 -560l354 -886h-264l-292 706l-258 -273l-63 -433h-250z" />
    <glyph glyph-name="L" unicode="L" horiz-adv-x="1126" 
d="M102 0l213 1446h242l-181 -1236h624l-32 -210h-866z" />
    <glyph glyph-name="M" unicode="M" horiz-adv-x="1761" 
d="M103 0l211 1446h344l196 -1105l522 1105h340l-210 -1446h-243l165 1134l-526 -1134h-198l-194 1127l-165 -1127h-242z" />
    <glyph glyph-name="N" unicode="N" horiz-adv-x="1506" 
d="M102 0l213 1446h234l524 -1033l149 1033h241l-213 -1446h-215l-538 1061l-155 -1061h-240z" />
    <glyph glyph-name="O" unicode="O" horiz-adv-x="1454" 
d="M649 -20q-193 0 -320.5 88t-179 253t-17.5 397q35 235 136.5 402t255 256.5t343.5 89.5t316 -89t178 -256t18 -401q-34 -232 -134 -398t-252.5 -254t-343.5 -88zM680 184q112 0 200.5 55.5t149 173t86.5 304.5q29 190 2.5 310.5t-98.5 177.5t-184 57
q-167 0 -283.5 -130.5t-158.5 -414.5q-27 -187 0 -304.5t100.5 -173t185.5 -55.5z" />
    <glyph glyph-name="P" unicode="P" horiz-adv-x="1259" 
d="M103 0l212 1446h494q150 0 260.5 -53.5t164 -157.5t31.5 -256q-21 -143 -98 -245t-195.5 -156t-266.5 -54h-282l-77 -524h-243zM449 719h279q80 0 146.5 34.5t110.5 96.5t56 143q17 124 -52.5 192.5t-189.5 68.5h-272z" />
    <glyph glyph-name="Q" unicode="Q" horiz-adv-x="1481" 
d="M1230 -244q-82 0 -158 16.5t-142.5 68t-118.5 155.5q-49 -8 -86.5 -12t-76.5 -4q-190 0 -317.5 87t-180 252.5t-17.5 400.5q34 235 135.5 402t254.5 255.5t343 88.5q191 0 317.5 -88.5t178.5 -255.5t18 -402q-30 -210 -113.5 -364.5t-224.5 -253.5q18 -70 78 -107.5
t140 -39.5zM679 184q172 0 285 126t154 408q28 187 2.5 307.5t-98 178.5t-186.5 58q-173 0 -286 -131.5t-156 -414.5q-39 -280 37.5 -406t247.5 -126z" />
    <glyph glyph-name="R" unicode="R" horiz-adv-x="1338" 
d="M102 0l212 1446h566q159 0 255.5 -51.5t132.5 -145t18 -218.5q-17 -116 -64.5 -194.5t-113 -128t-135.5 -80.5l172 -628h-249l-152 587h-317l-86 -587h-239zM456 780h275q86 0 152 28.5t107 83t52 130.5q16 112 -43 173t-171 61h-303z" />
    <glyph glyph-name="S" unicode="S" horiz-adv-x="1347" 
d="M607 -20q-102 0 -196 25.5t-166.5 77.5t-113.5 131t-38 186h252q5 -73 43.5 -123t102 -76t143.5 -26q86 0 159 24t120.5 70t57.5 113q8 59 -16.5 100t-74.5 67.5t-120 42.5l-248 58q-154 33 -232 128t-57 253q18 131 101 228.5t210 151t276 53.5q164 0 274.5 -62
t163.5 -160.5t45 -207.5h-247q3 86 -30 137t-93.5 73t-138.5 22q-76 0 -141.5 -24.5t-108 -71.5t-51.5 -112q-9 -70 30 -113.5t157 -73.5l242 -58q116 -24 182 -72t95 -109.5t32.5 -125.5t-4.5 -122q-15 -113 -96 -205t-213 -145.5t-301 -53.5z" />
    <glyph glyph-name="T" unicode="T" horiz-adv-x="1174" 
d="M394 0l178 1227h-429l32 219h1085l-32 -219h-416l-179 -1227h-239z" />
    <glyph glyph-name="U" unicode="U" horiz-adv-x="1391" 
d="M632 -20q-194 0 -302 66.5t-143 192t-9 303.5l132 904h245l-135 -929q-17 -112 8 -184.5t85 -108t150 -35.5q134 0 226 79.5t116 248.5l135 929h241l-133 -918q-25 -172 -97 -294.5t-199.5 -188t-319.5 -65.5z" />
    <glyph glyph-name="V" unicode="V" horiz-adv-x="1324" 
d="M441 0l-267 1446h230l216 -1165l561 1165h231l-696 -1446h-275z" />
    <glyph glyph-name="W" unicode="W" horiz-adv-x="1854" 
d="M368 0l-194 1446h237l126 -1044l431 1044h176l132 -1044l430 1044h235l-620 -1446h-199l-129 1025l-430 -1025h-195z" />
    <glyph glyph-name="X" unicode="X" horiz-adv-x="1369" 
d="M-3 0l572 736l-343 710h298l229 -504l374 504h258l-533 -681l374 -765h-300l-255 552l-412 -552h-262z" />
    <glyph glyph-name="Y" unicode="Y" horiz-adv-x="1237" 
d="M419 0l88 612l-354 834h259l248 -622l424 622h263l-600 -835l-90 -611h-238z" />
    <glyph glyph-name="Z" unicode="Z" horiz-adv-x="1280" 
d="M44 0l19 124l888 1115h-685l32 207h1024l-17 -118l-899 -1119h729l-31 -209h-1060z" />
    <glyph glyph-name="bracketleft" unicode="[" horiz-adv-x="640" 
d="M46 -322l257 1768h407l-22 -144h-206l-216 -1480h206l-22 -144h-404z" />
    <glyph glyph-name="backslash" unicode="\" horiz-adv-x="701" 
d="M418 -55l-262 1501h171l264 -1501h-173z" />
    <glyph glyph-name="bracketright" unicode="]" horiz-adv-x="640" 
d="M-57 -322l22 144h206l216 1480h-206l22 144h404l-257 -1768h-407z" />
    <glyph glyph-name="asciicircum" unicode="^" horiz-adv-x="928" 
d="M627 250l-130 544l-288 -542h-168l399 730q25 45 60.5 61.5t67 2t43.5 -62.5l185 -733h-169z" />
    <glyph glyph-name="underscore" unicode="_" horiz-adv-x="1046" 
d="M10 -259l28 182h800l-28 -181z" />
    <glyph glyph-name="grave" unicode="`" horiz-adv-x="559" 
d="M463 1155l-284 291h255l205 -291h-176z" />
    <glyph glyph-name="a" unicode="a" horiz-adv-x="1091" 
d="M348 -20q-96 0 -166 36.5t-103 105t-19 166.5q25 171 157 258t392 91l146 4l10 70q12 85 -32.5 130t-131.5 44q-70 -1 -136.5 -37t-97.5 -114h-203q21 99 86 171t165 110.5t222 38.5q142 0 226.5 -41t116.5 -115t17 -173l-106 -725h-201l6 181q-71 -116 -157.5 -158.5
t-190.5 -42.5zM449 145q43 0 86.5 16.5t81 45t63 63.5t31.5 73l24 163l-119 -2q-88 -1 -157.5 -20t-112.5 -60.5t-54 -110.5q-11 -79 34 -123.5t123 -44.5z" />
    <glyph glyph-name="b" unicode="b" horiz-adv-x="1180" 
d="M600 -20q-79 0 -133 22t-87 57t-50.5 75.5t-24.5 77.5l-56 -212h-177l202 1486h241l-81 -603q20 30 51.5 60t74.5 55t95 40.5t113 15.5q186 0 275 -137t54 -395q-33 -245 -160 -393.5t-337 -148.5zM575 159q103 0 181.5 87t104.5 282q23 170 -28 257.5t-165 87.5
q-122 0 -190.5 -88t-91.5 -257q-27 -198 19 -283.5t170 -85.5z" />
    <glyph glyph-name="c" unicode="c" horiz-adv-x="1059" 
d="M476 -20q-137 0 -234 62.5t-140.5 182t-18.5 288.5q23 161 98 282.5t191 190t261 68.5q118 0 199.5 -48t122 -133t35.5 -193h-204q0 47 -19 89.5t-58.5 69t-101.5 26.5q-110 0 -191.5 -86t-107.5 -264q-24 -164 28 -261t172 -97q62 0 109.5 28.5t78.5 71t43 85.5h199
q-24 -105 -89.5 -187t-161 -128.5t-211.5 -46.5z" />
    <glyph glyph-name="d" unicode="d" horiz-adv-x="1178" 
d="M434 -20q-198 0 -291.5 141t-58.5 401q33 243 155 387.5t319 144.5q61 0 109 -15.5t84 -40.5t59.5 -55t35.5 -60l82 603h241l-201 -1486h-178l2 212q-16 -37 -44.5 -77.5t-71.5 -75.5t-102.5 -57t-139.5 -22zM508 159q125 0 194 85.5t96 283.5q14 113 -1 190t-61.5 116
t-128.5 39q-104 0 -182.5 -81t-102.5 -264q-25 -182 24.5 -275.5t161.5 -93.5z" />
    <glyph glyph-name="e" unicode="e" horiz-adv-x="1109" 
d="M498 -20q-144 0 -244 63.5t-144 181.5t-20 281q23 159 97 282.5t190 194.5t265 71q148 0 239 -65t126 -181.5t12 -272.5l-12 -74h-685q-13 -88 4 -156t66 -106.5t128 -38.5q82 0 147.5 38.5t97.5 117.5h218q-33 -108 -109 -183t-175 -114t-201 -39zM343 612h461
q11 75 -5 135.5t-61.5 96t-122.5 35.5q-76 0 -134 -39t-93 -100.5t-45 -127.5z" />
    <glyph glyph-name="f" unicode="f" horiz-adv-x="771" 
d="M178 0l125 862h-194l26 172h193l23 154q19 124 95 191t202 67h211l-24 -166h-136q-58 0 -83.5 -30.5t-35.5 -95.5l-17 -120h227l-26 -172h-222l-126 -862h-238z" />
    <glyph glyph-name="g" unicode="g" horiz-adv-x="1211" 
d="M472 -342q-257 0 -385.5 74t-111.5 200q7 52 37.5 87.5t68.5 58.5t70 36t43 19q-13 9 -38 26t-44 47t-12 77q6 48 58 89.5t155 61.5q-85 47 -126 128.5t-28 173.5q13 94 75.5 165t168 110t247.5 39q104 0 167 -24t111 -62q23 9 61 24.5t82 33t85.5 34t69.5 27.5l-24 -203
l-180 -37q19 -66 11 -129q-12 -88 -70 -161.5t-159 -118t-244 -44.5q-19 0 -44.5 1t-37.5 2q-79 -1 -112 -13.5t-35 -34.5q1 -28 41 -40t122 -19q38 -3 92.5 -5.5t117.5 -7.5q175 -11 255 -91.5t63 -207.5q-20 -139 -157 -227.5t-393 -88.5zM513 -199q129 0 197 39.5
t78 114.5q6 49 -29 80t-115 36l-247 17q-41 2 -82 -17t-69 -53t-34 -76q-9 -69 63.5 -105t237.5 -36zM568 533q95 0 160.5 52t77.5 145q12 87 -34 135.5t-133 48.5q-96 0 -163 -55.5t-80 -151.5q-11 -82 34 -128t138 -46z" />
    <glyph glyph-name="h" unicode="h" horiz-adv-x="1152" 
d="M72 0l211 1486h238l-84 -592q44 58 120 103.5t196 45.5q95 0 168.5 -39.5t110.5 -111t23 -165.5l-103 -727h-240l97 688q11 77 -37 120.5t-128 43.5q-55 0 -106.5 -20t-86.5 -58.5t-42 -94.5l-97 -679h-240z" />
    <glyph glyph-name="i" unicode="i" horiz-adv-x="514" 
d="M68 0l146 1034h231l-145 -1034h-232zM237 1216l32 230h237l-32 -230h-237z" />
    <glyph glyph-name="j" unicode="j" horiz-adv-x="549" 
d="M-33 -332q-79 0 -100.5 13.5l-21.5 13.5l24 162l87 6q64 8 92 36.5t37 88.5l153 1046h239l-154 -1051q-23 -158 -106 -236.5t-250 -78.5zM263 1236l35 231h247l-34 -231h-248z" />
    <glyph glyph-name="k" unicode="k" horiz-adv-x="1113" 
d="M65 0l217 1486h240l-134 -921l474 469h261l-419 -404l284 -630h-243l-213 479l-184 -176l-44 -303h-239z" />
    <glyph glyph-name="l" unicode="l" horiz-adv-x="624" 
d="M352 -15q-97 0 -152 25t-77.5 67t-24.5 94.5t6 107.5l177 1207h236l-173 -1179q-10 -67 11 -104t80 -43l48 -2l-22 -153q-28 -8 -57 -14t-52 -6z" />
    <glyph glyph-name="m" unicode="m" horiz-adv-x="1711" 
d="M65 0l151 1034h233l-20 -138q52 65 133 111.5t197 46.5q78 0 154 -37.5t104 -119.5q61 73 149.5 115t176.5 42q55 0 108.5 -18t96 -59t62 -109t4.5 -167l-102 -701h-239l99 676q11 75 -8 117.5t-56.5 60.5t-81.5 18q-56 0 -102 -21t-77.5 -66t-43.5 -118l-97 -667h-238
l104 715q8 51 -13.5 86t-59.5 53t-78 18q-43 0 -89.5 -18t-81 -56.5t-43.5 -97.5l-104 -700h-238z" />
    <glyph glyph-name="n" unicode="n" horiz-adv-x="1144" 
d="M65 0l152 1034h233l-18 -138q34 40 78 74t102.5 55t137.5 21q93 0 166 -43t109.5 -124t18.5 -194l-100 -685h-240l97 657q14 94 -32.5 144.5t-124.5 50.5q-55 0 -107 -19.5t-88 -57.5t-44 -94l-101 -681h-239z" />
    <glyph glyph-name="o" unicode="o" horiz-adv-x="1108" 
d="M478 -20q-142 0 -239 63.5t-138.5 182.5t-17.5 286q23 162 97 284t189.5 190t262.5 68q143 0 239 -65t136.5 -186t16.5 -291q-23 -157 -95 -276.5t-186 -187.5t-265 -68zM508 165q79 0 137 46t94.5 126t50.5 182q13 95 1 175t-56 128.5t-130 48.5q-82 0 -140.5 -44.5
t-95 -124t-50.5 -183.5q-12 -94 -0.5 -174.5t56.5 -130t133 -49.5z" />
    <glyph glyph-name="p" unicode="p" horiz-adv-x="1176" 
d="M27 -322l184 1356h240l-20 -163q34 45 84 87t115.5 69t142.5 27q115 0 195.5 -56.5t115.5 -173.5t10 -296q-25 -183 -94 -305t-170.5 -182.5t-225.5 -60.5q-55 0 -99 16t-77.5 44t-56.5 61t-37 69l-66 -492h-241zM576 162q104 0 184.5 87.5t105.5 274.5
q21 162 -30.5 255.5t-164.5 93.5q-121 0 -195.5 -98.5t-93.5 -250.5q-13 -98 2.5 -180.5t63 -132t128.5 -49.5z" />
    <glyph glyph-name="q" unicode="q" horiz-adv-x="1177" 
d="M680 -322l66 492q-30 -47 -77 -90.5t-108 -71.5t-135 -28q-116 0 -202.5 56.5t-126 177t-12.5 314.5q23 170 86 287.5t159.5 178t218.5 60.5q58 0 105 -15.5t83.5 -41.5t62 -59t41.5 -67l24 163h240l-184 -1356h-241zM505 162q81 0 142 49.5t98.5 132t50.5 180.5
q20 152 -27 250.5t-169 98.5q-104 0 -184.5 -87t-103.5 -262q-23 -174 28.5 -268t164.5 -94z" />
    <glyph glyph-name="r" unicode="r" horiz-adv-x="782" 
d="M65 0l146 1034h230l-31 -224q35 77 87 131.5t117.5 83.5t137.5 29q18 0 33 -2t23 -7l-33 -233q-10 5 -26 7t-28 2q-97 8 -167 -15.5t-111 -75.5t-53 -129l-84 -601h-241z" />
    <glyph glyph-name="s" unicode="s" horiz-adv-x="1010" 
d="M445 -20q-104 0 -192.5 34.5t-142 108.5t-54.5 191h212q4 -57 33.5 -93t73.5 -52.5t93 -16.5q89 0 148 32t68 99q7 49 -19.5 78t-92.5 44l-182 45q-123 29 -190.5 96t-51.5 189q12 92 68 164t151.5 113.5t228.5 41.5q176 0 271 -80.5t76 -229.5h-204q-1 67 -45.5 104.5
t-123.5 37.5q-82 0 -139 -33t-66 -101q-7 -47 29.5 -74t115.5 -46l171 -45q74 -20 119.5 -54t67.5 -74.5t27 -83t0 -78.5q-14 -100 -73.5 -170.5t-156.5 -108.5t-220 -38z" />
    <glyph glyph-name="t" unicode="t" horiz-adv-x="790" 
d="M461 -8q-119 0 -180.5 32.5t-78.5 92.5t-5 143l88 602h-162l27 172h167l85 307h192l-44 -306h223l-26 -173h-223l-84 -588q-10 -69 12.5 -88t75.5 -19h122l-23 -154q-20 -8 -60 -14.5t-106 -6.5z" />
    <glyph glyph-name="u" unicode="u" horiz-adv-x="1151" 
d="M429 -20q-72 0 -137 22.5t-113 66t-71 107.5t-11 149l99 709h241l-96 -681q-12 -84 32 -138t145 -54q94 0 157 51.5t77 148.5l95 673h238l-145 -1034h-184l1 202q-29 -85 -82.5 -133.5t-117.5 -68.5t-128 -20z" />
    <glyph glyph-name="v" unicode="v" horiz-adv-x="992" 
d="M324 0l-215 1034h219l130 -724h11l340 724h220l-519 -1034h-186z" />
    <glyph glyph-name="w" unicode="w" horiz-adv-x="1511" 
d="M277 0l-164 1034h215l101 -711h10l303 711h174l100 -710h11l301 710h217l-468 -1034h-202l-102 689l-297 -689h-199z" />
    <glyph glyph-name="x" unicode="x" horiz-adv-x="1117" 
d="M-25 0l460 538l-276 496h252l181 -323l272 323h253l-423 -496l302 -538h-253l-204 368l-311 -368h-253z" />
    <glyph glyph-name="y" unicode="y" horiz-adv-x="1064" 
d="M139 -330q-95 0 -131.5 15.5l-36.5 15.5l23 156l100 -3q81 -5 125 13.5t64.5 45t30.5 46.5l36 76l-241 999h239l153 -731l366 731h234l-563 -1072q-65 -117 -128.5 -180.5t-130 -87.5t-140.5 -24z" />
    <glyph glyph-name="z" unicode="z" horiz-adv-x="955" 
d="M-2 0l18 141l622 720h-485l25 173h776l-17 -141l-622 -720h522l-25 -173h-814z" />
    <glyph glyph-name="braceleft" unicode="{" horiz-adv-x="702" 
d="M394 -322q-75 0 -135 26t-91 76.5t-21 123.5l62 418q7 47 -9.5 88.5t-61 67t-120.5 25.5l21 131q114 1 172.5 51.5t70.5 137.5l59 401q11 72 57 121.5t112.5 75t138.5 25.5h123l-22 -144h-79q-51 0 -78 -13t-39 -36.5t-16 -53.5l-60 -410q-12 -72 -48.5 -117.5
t-84.5 -68.5t-95 -28q-11 -1 -12.5 -6t10.5 -7q45 -4 87 -25t65 -67.5t12 -127.5l-59 -414q-8 -55 13 -80.5t91 -25.5h77l-22 -144h-118z" />
    <glyph glyph-name="bar" unicode="|" horiz-adv-x="539" 
d="M58 -322l287 1974h179l-289 -1974h-177z" />
    <glyph glyph-name="braceright" unicode="}" horiz-adv-x="706" 
d="M-84 -322l21 144h79q51 0 78.5 13t39 36.5t15.5 53.5l60 410q12 72 48.5 117.5t84.5 68.5t95 28q12 2 13 7t-11 6q-45 4 -86.5 25t-65 67.5t-12.5 128.5l59 413q9 56 -12.5 81t-91.5 25h-76l21 144h118q76 0 135.5 -26t91 -76.5t20.5 -123.5l-62 -418q-7 -47 10 -88.5
t61 -67t120 -25.5l-21 -131q-113 0 -171.5 -50.5t-71.5 -138.5l-59 -401q-11 -72 -57 -121.5t-112.5 -75t-138.5 -25.5h-122z" />
    <glyph glyph-name="asciitilde" unicode="~" horiz-adv-x="1151" 
d="M191 578l-50 127q74 67 146.5 113.5t163.5 46.5q57 0 99.5 -17.5t79.5 -39.5t74.5 -39.5t84.5 -17.5q70 0 124.5 38.5t93.5 88.5l51 -127q-52 -74 -128.5 -116.5t-161.5 -42.5q-57 0 -100 17.5t-79.5 40.5t-75 40t-87.5 17q-72 0 -129 -40.5t-106 -88.5z" />
    <glyph glyph-name="uni00A0" unicode="&#xa0;" horiz-adv-x="467" 
 />
    <glyph glyph-name="exclamdown" unicode="&#xa1;" horiz-adv-x="535" 
d="M5 -322l194 944h153l-63 -944h-284zM158 758l38 276h270l-38 -276h-270z" />
    <glyph glyph-name="cent" unicode="&#xa2;" horiz-adv-x="1115" 
d="M545 202q-143 0 -244.5 62.5t-147 182t-19.5 288.5q24 161 102.5 282.5t199.5 190t273 68.5q124 0 209.5 -48t128 -133t35.5 -193h-217q0 47 -19.5 89.5t-60 69t-104.5 26.5q-113 0 -196.5 -86t-111.5 -264q-24 -164 29.5 -261t177.5 -97q64 0 112.5 28.5t80 71
t44.5 85.5h212q-25 -105 -93 -187t-169 -128.5t-222 -46.5zM416 0l47 314h162l-46 -314h-163zM608 1132l46 314h163l-47 -314h-162z" />
    <glyph glyph-name="sterling" unicode="&#xa3;" horiz-adv-x="1224" 
d="M-37 0l31 205h68q72 0 128 55.5t74 180.5q8 50 10.5 103.5t3.5 137.5h-196l22 142h167l3 173q-1 113 39 199.5t109.5 147t157 91.5t179.5 31q98 0 177.5 -33t133.5 -92t75 -139l-219 -69q-21 69 -57 101.5t-106 32.5q-78 0 -138 -50.5t-74 -142.5q-6 -48 -6 -112t7 -137
h293l-22 -142h-274q-2 -69 -8 -118.5t-21 -100.5q-15 -71 -39 -119t-52.5 -81t-57.5 -57h289q94 0 150.5 36t101.5 124l195 -48q-68 -159 -183.5 -239t-279.5 -80h-681z" />
    <glyph glyph-name="currency" unicode="&#xa4;" horiz-adv-x="1094" 
d="M154 261l-87 112l140 125q-26 53 -34 107.5t1 121.5q9 60 31.5 113t57.5 100q7 10 7 16.5t-6 13.5l-91 114l121 110l104 -129q53 34 112.5 53t117.5 19q115 0 202 -64q12 -8 23 2l122 110l88 -110l-133 -119q25 -51 34 -108t0 -120q-8 -58 -32 -115t-62 -103
q-7 -12 -2 -18l94 -110l-122 -110l-96 119q-55 -34 -113.5 -54t-118.5 -20q-115 0 -201 62q-15 12 -29 -3zM536 486q66 0 122.5 34t95 89t48.5 119q9 63 -12.5 118t-69 89.5t-114.5 34.5q-65 0 -122.5 -34.5t-96 -89.5t-47.5 -118q-10 -64 12 -119t69.5 -89t114.5 -34z" />
    <glyph glyph-name="yen" unicode="&#xa5;" horiz-adv-x="1229" 
d="M405 0l87 604l-363 842h311l245 -616l425 616h252l-592 -808l-94 -638h-271zM151 243l21 139l849 1l-21 -139zM195 547l21 140l850 1l-20 -140z" />
    <glyph glyph-name="brokenbar" unicode="&#xa6;" horiz-adv-x="539" 
d="M228 843l117 809h179l-119 -809h-177zM58 -322l117 809h178l-118 -809h-177z" />
    <glyph glyph-name="section" unicode="&#xa7;" horiz-adv-x="974" 
d="M399 -150q-104 0 -185.5 31t-135.5 83.5t-76 117.5l162 78q32 -62 93 -108t162 -46q82 0 139.5 31.5t65.5 92.5q7 44 -21 82.5t-119 78.5l-145 61q-137 57 -191.5 129t-39.5 178q14 93 73 159t143 103q-89 58 -114.5 119t-15.5 130q12 84 68 151t146.5 106t205.5 39
q93 0 166 -30t122 -78.5t70 -103.5l-161 -79q-36 54 -85.5 94.5t-126.5 40.5q-79 0 -128.5 -32t-57.5 -85q-5 -39 21.5 -72t83.5 -59l145 -63q147 -63 205.5 -139.5t40.5 -188.5q-13 -96 -68 -157t-131 -101q80 -51 113.5 -111t21.5 -143q-14 -90 -71 -159.5t-152.5 -109.5
t-222.5 -40zM542 496q42 -4 77.5 15t59 52.5t26.5 74.5q4 51 -22 89.5t-107 73.5l-88 38q-47 -4 -85 -25t-62 -53t-30 -68q-6 -48 19.5 -80t116.5 -72z" />
    <glyph glyph-name="dieresis" unicode="&#xa8;" horiz-adv-x="648" 
d="M503 1235l31 211h231l-31 -211h-231zM109 1235l31 211h232l-31 -211h-232z" />
    <glyph glyph-name="copyright" unicode="&#xa9;" horiz-adv-x="1588" 
d="M709 -20q-147 0 -268 57.5t-204 159.5t-119 237t-13 290q22 153 97 287.5t188 236.5t251 160t285 58t268 -58t204 -160t119 -236.5t13 -287.5q-23 -155 -98.5 -290t-188.5 -237t-250 -159.5t-284 -57.5zM763 312q-110 0 -187.5 52.5t-112.5 145.5t-17 216q19 124 81 218
t155 147t202 53q88 0 148 -36t95 -91.5t49 -115.5l-173 -27q-10 37 -26 67t-41.5 48.5t-65.5 18.5q-55 0 -101.5 -32t-79 -94t-45.5 -152q-20 -139 23 -210.5t131 -71.5q70 0 120.5 41t89.5 104l119 -37q-20 -39 -53 -81.5t-79 -79.5t-104 -60t-128 -23zM731 126
q119 0 226.5 41.5t195 120t146 189t78.5 247.5q20 135 -6 245t-90.5 189.5t-160.5 122.5t-215 43q-121 0 -229 -43t-195 -122.5t-145 -189.5t-78 -245q-27 -182 26.5 -316.5t169.5 -208t277 -73.5z" />
    <glyph glyph-name="ordfeminine" unicode="&#xaa;" horiz-adv-x="766" 
d="M328 793q-94 0 -139 50t-33 132q14 97 102.5 155.5t233.5 65.5l87 7l5 44q10 61 -20 84.5t-77 23.5q-41 0 -77.5 -18t-69.5 -71l-125 33q46 80 114 122t179 42q135 0 184.5 -56.5t35.5 -154.5q-12 -82 -19.5 -137t-14.5 -106q-2 -14 -5 -39t-5 -52.5t-3 -47.5l3 -65h-148
l-4 77q-54 -45 -100.5 -67t-103.5 -22zM396 899q62 0 110 42q19 16 31 31.5t14 36.5l14 101l-70 -5q-85 -5 -134 -36.5t-57 -83.5q-4 -39 20.5 -62.5t71.5 -23.5z" />
    <glyph glyph-name="guillemotleft" unicode="&#xab;" horiz-adv-x="932" 
d="M626 134l-183 368l294 384h130l-227 -384l116 -368h-130zM272 134l-182 368l291 384h132l-227 -384l115 -368h-129z" />
    <glyph glyph-name="logicalnot" unicode="&#xac;" horiz-adv-x="1116" 
d="M136 636l28 181l875 1l-28 -181zM772 342l60 417h198l-62 -417h-196z" />
    <glyph glyph-name="uni00AD" unicode="&#xad;" horiz-adv-x="752" 
d="M109 424l26 182l508 1l-26 -182z" />
    <glyph glyph-name="registered" unicode="&#xae;" horiz-adv-x="1054" 
d="M523 536q-124 0 -216.5 62t-137 167.5t-25.5 234.5t94 235t185.5 168.5t235.5 62.5q123 0 214 -62.5t136 -168.5t26 -235q-18 -129 -93.5 -234.5t-185.5 -167.5t-233 -62zM538 641q100 0 182 44.5t136 125t69 189.5q16 109 -14 190t-98.5 126t-168.5 45q-102 0 -184 -45
t-135.5 -126t-69.5 -190q-24 -163 53.5 -261t229.5 -98zM380 767l68 461h204q77 0 115 -30.5t30 -89.5q-7 -51 -39 -80.5t-70 -43.5l55 -217h-109l-39 206h-86l-29 -206h-100zM520 1048h99q28 0 49 12.5t25 40.5q3 23 -11.5 38t-53.5 15h-93z" />
    <glyph glyph-name="macron" unicode="&#xaf;" horiz-adv-x="708" 
d="M135 1219l23 161h635l-24 -161h-634z" />
    <glyph glyph-name="degree" unicode="&#xb0;" horiz-adv-x="913" 
d="M519 1021q-90 0 -154.5 41.5t-94 115t-15.5 168.5t65.5 169t128 116t167.5 42q89 0 153.5 -42t94.5 -116t16 -169t-65.5 -168.5t-128.5 -115t-167 -41.5zM539 1163q75 0 126.5 51t62.5 130q13 79 -24.5 129.5t-114.5 50.5q-74 0 -126 -50.5t-64 -129.5q-9 -79 28 -130
t112 -51z" />
    <glyph glyph-name="plusminus" unicode="&#xb1;" horiz-adv-x="1121" 
d="M461 437l132 907h179l-135 -907h-176zM60 92l27 180l874 1l-26 -180zM164 799l27 181l875 1l-27 -182h-875z" />
    <glyph glyph-name="uni00B2" unicode="&#xb2;" horiz-adv-x="736" 
d="M67 768l11 82l7 42q11 82 52 137.5t99.5 95.5t121.5 71.5t120 62.5t96 70t46 93q9 62 -26.5 100.5t-105.5 38.5q-74 0 -129 -45t-75 -126h-147q19 124 114 212t260 88q141 0 213.5 -73.5t54.5 -193.5q-11 -81 -51.5 -136t-97 -93t-118.5 -67.5t-117.5 -58t-93.5 -65.5
t-45 -91l-2 -13h454l-19 -131h-622z" />
    <glyph glyph-name="uni00B3" unicode="&#xb3;" horiz-adv-x="800" 
d="M393 754q-150 1 -225.5 77.5t-59.5 208.5h147q2 -80 45 -119.5t113 -39.5q88 0 144.5 40.5t66.5 104.5q9 70 -39.5 108.5t-129.5 39.5l-82 3l18 124l76 3q52 2 93.5 20.5t68.5 50t33 69.5q7 53 -34 88.5t-119 35.5q-43 0 -84 -16.5t-71 -52.5t-41 -95h-146
q13 94 65 157.5t130 96t167 32.5q96 0 166 -26.5t105 -80t24 -133.5q-10 -67 -56.5 -119.5t-135.5 -83.5q50 -15 87.5 -44.5t56 -74.5t10.5 -105q-12 -86 -68 -146.5t-141 -91.5t-184 -31z" />
    <glyph glyph-name="acute" unicode="&#xb4;" horiz-adv-x="477" 
d="M100 1155l238 291h260l-317 -291h-181z" />
    <glyph glyph-name="uni00B5" unicode="&#xb5;" horiz-adv-x="1167" 
d="M4 -330l203 1390h246l-102 -688q-5 -44 13 -80t54.5 -57.5t85.5 -21.5q69 0 134 42.5t119 113.5l99 691h249l-159 -1060h-238l23 164q-73 -63 -129.5 -94.5t-117.5 -37.5q-49 -5 -94 3t-82 36l-59 -401h-245z" />
    <glyph glyph-name="paragraph" unicode="&#xb6;" horiz-adv-x="1130" 
d="M377 -166l111 762q-113 7 -195 59.5t-120 144.5t-20 214q17 115 81.5 213.5t172 158.5t252.5 60h478l-20 -142h-119l-215 -1470h-150l215 1470h-105l-216 -1470h-150z" />
    <glyph glyph-name="periodcentered" unicode="&#xb7;" horiz-adv-x="486" 
d="M116 600l39 257h259l-39 -257h-259z" />
    <glyph glyph-name="cedilla" unicode="&#xb8;" horiz-adv-x="493" 
d="M100 -419q-56 0 -106.5 12t-90.5 40l48 89q25 -19 58 -33.5t75 -14.5q49 0 76.5 17.5t32.5 49.5q6 41 -27 62t-119 22q-12 0 -15 3.5t3 13.5l95 168h112l-61 -119q69 -2 106 -25.5t49.5 -57.5t7.5 -68q-7 -51 -43 -86.5t-89 -54t-112 -18.5z" />
    <glyph glyph-name="uni00B9" unicode="&#xb9;" horiz-adv-x="484" 
d="M206 760l102 701h-161l13 91q115 0 166 30.5t65 87.5h101l-134 -910h-152z" />
    <glyph glyph-name="ordmasculine" unicode="&#xba;" horiz-adv-x="758" 
d="M417 795q-136 0 -202 93.5t-46 238.5q15 101 63 177t121 118.5t160 42.5q134 0 201.5 -94.5t46.5 -243.5q-13 -97 -60.5 -172t-120 -117.5t-163.5 -42.5zM433 908q71 0 115 58t59 166q15 106 -12.5 163t-97.5 57q-71 0 -114 -57t-58 -163q-16 -108 11.5 -166t96.5 -58z
" />
    <glyph glyph-name="guillemotright" unicode="&#xbb;" horiz-adv-x="930" 
d="M417 134l225 368l-116 384h130l180 -384l-289 -368h-130zM64 134l222 368l-114 384h130l180 -384l-290 -368h-128z" />
    <glyph glyph-name="onequarter" unicode="&#xbc;" horiz-adv-x="1552" 
d="M206 552l102 701h-161l13 91q115 0 166 30.5t65 87.5h101l-134 -910h-152zM277 -8l-145 2l1152 1468h143zM1149 0l32 216h-406l20 130l483 564h149l-81 -564h138l-19 -130h-140l-31 -216h-145zM936 346h263l54 373z" />
    <glyph glyph-name="onehalf" unicode="&#xbd;" horiz-adv-x="1698" 
d="M206 552l102 701h-161l13 91q115 0 166 30.5t65 87.5h101l-134 -910h-152zM277 -8l-145 2l1152 1468h143zM950 0l12 82l6 42q12 82 52.5 137.5t99 95.5t122 71.5t120.5 62.5t96 70t46 93q8 62 -27.5 100.5t-104.5 38.5q-75 0 -130 -45t-75 -126h-147q19 124 114.5 212
t259.5 88q142 0 214.5 -73.5t54.5 -193.5q-12 -81 -52.5 -136t-97 -93t-118 -67.5t-117 -58t-93.5 -65.5t-46 -91l-1 -13h453l-19 -131h-622z" />
    <glyph glyph-name="threequarters" unicode="&#xbe;" horiz-adv-x="1795" 
d="M393 544q-150 1 -225.5 77.5t-59.5 208.5h147q2 -80 45 -119.5t113 -39.5q88 0 144.5 40.5t66.5 104.5q9 70 -39.5 108.5t-129.5 39.5l-82 3l18 124l76 3q52 2 93.5 20.5t68.5 50t33 69.5q7 53 -34 88.5t-119 35.5q-43 0 -84 -16.5t-71 -52.5t-41 -95h-146
q13 94 65 157.5t130 96t167 32.5q96 0 166 -26.5t105 -80t24 -133.5q-10 -67 -56.5 -119.5t-135.5 -83.5q50 -15 87.5 -44.5t56 -74.5t10.5 -105q-12 -86 -68 -146.5t-141 -91.5t-184 -31zM520 -8l-145 2l1152 1468h143zM1392 0l32 216h-406l20 130l483 564h149l-81 -564
h138l-19 -130h-140l-31 -216h-145zM1179 346h263l54 373z" />
    <glyph glyph-name="questiondown" unicode="&#xbf;" horiz-adv-x="1035" 
d="M394 -342q-146 0 -239.5 45.5t-134 123.5t-27.5 176t60 163t109.5 113.5t125 94.5t108.5 106t58 148h198q-14 -105 -57.5 -177.5t-100.5 -125t-112.5 -98t-96 -95t-49.5 -117.5q-11 -80 41 -129t142 -49q57 0 114 24t105 66.5t76 97.5l200 -55q-81 -148 -216 -230
t-304 -82zM436 758l38 276h270l-38 -276h-270z" />
    <glyph glyph-name="Agrave" unicode="&#xc0;" horiz-adv-x="1394" 
d="M-3 0l711 1446h257l286 -1446h-239l-69 363h-527l-178 -363h-241zM503 579h412l-112 630zM762 1567l-284 291h255l205 -291h-176z" />
    <glyph glyph-name="Aacute" unicode="&#xc1;" horiz-adv-x="1394" 
d="M-3 0l711 1446h257l286 -1446h-239l-69 363h-527l-178 -363h-241zM503 579h412l-112 630zM752 1567l238 291h260l-317 -291h-181z" />
    <glyph glyph-name="Acircumflex" unicode="&#xc2;" horiz-adv-x="1394" 
d="M-3 0l711 1446h257l286 -1446h-239l-69 363h-527l-178 -363h-241zM503 579h412l-112 630zM484 1567l262 244h167l232 -244h-201l-121 135l-150 -135h-189z" />
    <glyph glyph-name="Atilde" unicode="&#xc3;" horiz-adv-x="1394" 
d="M-3 0l711 1446h257l286 -1446h-239l-69 363h-527l-178 -363h-241zM503 579h412l-112 630zM592 1620l-21 123q39 36 82.5 60.5t104.5 24.5q51 0 94.5 -14.5t84.5 -29t84 -14.5q46 0 85.5 20t72.5 43l13 -141q-31 -23 -80.5 -44.5t-112.5 -21.5q-52 0 -91.5 14t-77.5 27.5
t-84 13.5q-48 0 -81.5 -16.5t-72.5 -44.5z" />
    <glyph glyph-name="Adieresis" unicode="&#xc4;" horiz-adv-x="1394" 
d="M-3 0l711 1446h257l286 -1446h-239l-69 363h-527l-178 -363h-241zM503 579h412l-112 630zM945 1647l31 211h231l-31 -211h-231zM551 1647l31 211h232l-31 -211h-232z" />
    <glyph glyph-name="Aring" unicode="&#xc5;" horiz-adv-x="1394" 
d="M-3 0l711 1446h257l286 -1446h-239l-69 363h-527l-178 -363h-241zM503 579h412l-112 630zM853 1556q-85 0 -135.5 62.5t-36.5 153.5q8 56 42.5 102.5t85 74.5t106.5 28q86 0 136.5 -61t37.5 -148q-9 -60 -43.5 -108t-85 -76t-107.5 -28zM867 1661q41 0 74 32t40 74
q6 44 -18 73t-66 29q-39 0 -73.5 -29t-41.5 -73q-6 -42 19.5 -74t65.5 -32z" />
    <glyph glyph-name="AE" unicode="&#xc6;" horiz-adv-x="1954" 
d="M-73 0l963 1446h1066l-31 -205h-658l-60 -410h582l-30 -204h-582l-61 -420h680l-30 -207h-954l54 366h-458l-240 -366h-241zM531 579h366l103 702z" />
    <glyph glyph-name="Ccedilla" unicode="&#xc7;" horiz-adv-x="1376" 
d="M567 -419q-57 0 -107 12t-91 40l48 89q25 -19 58.5 -33.5t75.5 -14.5q49 0 76.5 17.5t32.5 49.5q6 41 -27.5 62t-119.5 22q-11 0 -14.5 3.5t3.5 13.5l94 168h112l-60 -119q68 -2 105 -25.5t49.5 -57.5t8.5 -68q-8 -51 -43.5 -86.5t-88.5 -54t-112 -18.5zM642 -20
q-179 0 -298.5 80.5t-174.5 231t-40 361.5q11 171 62.5 319t142.5 259t221 173t298 62q151 0 259.5 -62t166 -171.5t55.5 -250.5h-252q-3 80 -33.5 143t-88 100t-145.5 37q-103 0 -178.5 -49t-127 -134.5t-80.5 -197t-39 -239.5q-21 -236 51 -347t224 -111q88 0 156.5 40.5
t116.5 108t73 147.5h253q-25 -98 -74.5 -188t-124.5 -160.5t-180 -111t-243 -40.5z" />
    <glyph glyph-name="Egrave" unicode="&#xc8;" horiz-adv-x="1231" 
d="M102 0l213 1446h921l-32 -209h-680l-59 -405h599l-30 -206h-600l-61 -414l696 -1l-32 -211h-935zM680 1567l-284 291h255l205 -291h-176z" />
    <glyph glyph-name="Eacute" unicode="&#xc9;" horiz-adv-x="1231" 
d="M102 0l213 1446h921l-32 -209h-680l-59 -405h599l-30 -206h-600l-61 -414l696 -1l-32 -211h-935zM670 1567l238 291h260l-317 -291h-181z" />
    <glyph glyph-name="Ecircumflex" unicode="&#xca;" horiz-adv-x="1231" 
d="M102 0l213 1446h921l-32 -209h-680l-59 -405h599l-30 -206h-600l-61 -414l696 -1l-32 -211h-935zM442 1567l262 244h167l232 -244h-201l-121 135l-150 -135h-189z" />
    <glyph glyph-name="Edieresis" unicode="&#xcb;" horiz-adv-x="1231" 
d="M102 0l213 1446h921l-32 -209h-680l-59 -405h599l-30 -206h-600l-61 -414l696 -1l-32 -211h-935zM863 1647l31 211h231l-31 -211h-231zM469 1647l31 211h232l-31 -211h-232z" />
    <glyph glyph-name="Igrave" unicode="&#xcc;" horiz-adv-x="598" 
d="M103 0l211 1446h240l-211 -1446h-240zM361 1567l-284 291h255l205 -291h-176z" />
    <glyph glyph-name="Iacute" unicode="&#xcd;" horiz-adv-x="598" 
d="M103 0l211 1446h240l-211 -1446h-240zM350 1567l238 291h260l-317 -291h-181z" />
    <glyph glyph-name="Icircumflex" unicode="&#xce;" horiz-adv-x="598" 
d="M103 0l211 1446h240l-211 -1446h-240zM122 1567l262 244h167l232 -244h-201l-121 135l-150 -135h-189z" />
    <glyph glyph-name="Idieresis" unicode="&#xcf;" horiz-adv-x="598" 
d="M103 0l211 1446h240l-211 -1446h-240zM544 1647l31 211h231l-31 -211h-231zM150 1647l31 211h232l-31 -211h-232z" />
    <glyph glyph-name="Eth" unicode="&#xd0;" horiz-adv-x="1476" 
d="M91 626l21 184h737l-21 -184h-737zM195 0l207 1446q9 0 69 -0.5t135 -0.5q140 0 262.5 -14t222 -48.5t171.5 -97.5t110.5 -161.5t38.5 -239.5q0 -95 -15.5 -196.5t-52 -200.5t-99 -186.5t-156 -155t-222.5 -106.5t-299 -39h-372zM469 201h119q145 0 253 52t179.5 144
t107 215t35.5 265q0 134 -48 215t-139 117t-219 36h-137z" />
    <glyph glyph-name="Ntilde" unicode="&#xd1;" horiz-adv-x="1506" 
d="M102 0l213 1446h234l524 -1033l149 1033h241l-213 -1446h-215l-538 1061l-155 -1061h-240zM643 1620l-21 123q39 36 82.5 60.5t104.5 24.5q51 0 94.5 -14.5t84.5 -29t84 -14.5q46 0 85.5 20t72.5 43l13 -141q-31 -23 -80.5 -44.5t-112.5 -21.5q-52 0 -91.5 14t-77.5 27.5
t-84 13.5q-48 0 -81.5 -16.5t-72.5 -44.5z" />
    <glyph glyph-name="Ograve" unicode="&#xd2;" horiz-adv-x="1454" 
d="M649 -20q-193 0 -320.5 88t-179 253t-17.5 397q35 235 136.5 402t255 256.5t343.5 89.5t316 -89t178 -256t18 -401q-34 -232 -134 -398t-252.5 -254t-343.5 -88zM680 184q112 0 200.5 55.5t149 173t86.5 304.5q29 190 2.5 310.5t-98.5 177.5t-184 57
q-167 0 -283.5 -130.5t-158.5 -414.5q-27 -187 0 -304.5t100.5 -173t185.5 -55.5zM780 1567l-284 291h255l205 -291h-176z" />
    <glyph glyph-name="Oacute" unicode="&#xd3;" horiz-adv-x="1454" 
d="M649 -20q-193 0 -320.5 88t-179 253t-17.5 397q35 235 136.5 402t255 256.5t343.5 89.5t316 -89t178 -256t18 -401q-34 -232 -134 -398t-252.5 -254t-343.5 -88zM680 184q112 0 200.5 55.5t149 173t86.5 304.5q29 190 2.5 310.5t-98.5 177.5t-184 57
q-167 0 -283.5 -130.5t-158.5 -414.5q-27 -187 0 -304.5t100.5 -173t185.5 -55.5zM769 1567l238 291h260l-317 -291h-181z" />
    <glyph glyph-name="Ocircumflex" unicode="&#xd4;" horiz-adv-x="1454" 
d="M649 -20q-193 0 -320.5 88t-179 253t-17.5 397q35 235 136.5 402t255 256.5t343.5 89.5t316 -89t178 -256t18 -401q-34 -232 -134 -398t-252.5 -254t-343.5 -88zM680 184q112 0 200.5 55.5t149 173t86.5 304.5q29 190 2.5 310.5t-98.5 177.5t-184 57
q-167 0 -283.5 -130.5t-158.5 -414.5q-27 -187 0 -304.5t100.5 -173t185.5 -55.5zM541 1567l262 244h167l232 -244h-201l-121 135l-150 -135h-189z" />
    <glyph glyph-name="Otilde" unicode="&#xd5;" horiz-adv-x="1454" 
d="M649 -20q-193 0 -320.5 88t-179 253t-17.5 397q35 235 136.5 402t255 256.5t343.5 89.5t316 -89t178 -256t18 -401q-34 -232 -134 -398t-252.5 -254t-343.5 -88zM680 184q112 0 200.5 55.5t149 173t86.5 304.5q29 190 2.5 310.5t-98.5 177.5t-184 57
q-167 0 -283.5 -130.5t-158.5 -414.5q-27 -187 0 -304.5t100.5 -173t185.5 -55.5zM609 1620l-21 123q39 36 82.5 60.5t104.5 24.5q51 0 94.5 -14.5t84.5 -29t84 -14.5q46 0 85.5 20t72.5 43l13 -141q-31 -23 -80.5 -44.5t-112.5 -21.5q-52 0 -91.5 14t-77.5 27.5t-84 13.5
q-48 0 -81.5 -16.5t-72.5 -44.5z" />
    <glyph glyph-name="Odieresis" unicode="&#xd6;" horiz-adv-x="1454" 
d="M649 -20q-193 0 -320.5 88t-179 253t-17.5 397q35 235 136.5 402t255 256.5t343.5 89.5t316 -89t178 -256t18 -401q-34 -232 -134 -398t-252.5 -254t-343.5 -88zM680 184q112 0 200.5 55.5t149 173t86.5 304.5q29 190 2.5 310.5t-98.5 177.5t-184 57
q-167 0 -283.5 -130.5t-158.5 -414.5q-27 -187 0 -304.5t100.5 -173t185.5 -55.5zM962 1647l31 211h231l-31 -211h-231zM568 1647l31 211h232l-31 -211h-232z" />
    <glyph glyph-name="multiply" unicode="&#xd7;" horiz-adv-x="1090" 
d="M211 288l-105 130l831 750l107 -128zM805 288l-610 750l144 128l612 -748z" />
    <glyph glyph-name="Oslash" unicode="&#xd8;" horiz-adv-x="1481" 
d="M84 -27l-95 116l187 179q-37 88 -46.5 201t10.5 249q34 235 135 402t254.5 256.5t343.5 89.5q131 0 230.5 -42t166.5 -123l181 170l94 -114l-194 -187q36 -88 45 -201t-10 -249q-33 -232 -133 -398t-253 -254t-344 -88q-130 0 -229.5 41t-166.5 118zM688 181
q149 0 243.5 103t137.5 320q19 90 26.5 175.5t3.5 170.5l-648 -641q64 -128 237 -128zM426 487l651 643q-31 71 -89 104t-144 33q-153 0 -251 -111t-143 -344q-16 -86 -22 -167t-2 -158z" />
    <glyph glyph-name="Ugrave" unicode="&#xd9;" horiz-adv-x="1391" 
d="M632 -20q-194 0 -302 66.5t-143 192t-9 303.5l132 904h245l-135 -929q-17 -112 8 -184.5t85 -108t150 -35.5q134 0 226 79.5t116 248.5l135 929h241l-133 -918q-25 -172 -97 -294.5t-199.5 -188t-319.5 -65.5zM772 1567l-284 291h255l205 -291h-176z" />
    <glyph glyph-name="Uacute" unicode="&#xda;" horiz-adv-x="1391" 
d="M632 -20q-194 0 -302 66.5t-143 192t-9 303.5l132 904h245l-135 -929q-17 -112 8 -184.5t85 -108t150 -35.5q134 0 226 79.5t116 248.5l135 929h241l-133 -918q-25 -172 -97 -294.5t-199.5 -188t-319.5 -65.5zM761 1567l238 291h260l-317 -291h-181z" />
    <glyph glyph-name="Ucircumflex" unicode="&#xdb;" horiz-adv-x="1391" 
d="M632 -20q-194 0 -302 66.5t-143 192t-9 303.5l132 904h245l-135 -929q-17 -112 8 -184.5t85 -108t150 -35.5q134 0 226 79.5t116 248.5l135 929h241l-133 -918q-25 -172 -97 -294.5t-199.5 -188t-319.5 -65.5zM533 1567l262 244h167l232 -244h-201l-121 135l-150 -135
h-189z" />
    <glyph glyph-name="Udieresis" unicode="&#xdc;" horiz-adv-x="1391" 
d="M632 -20q-194 0 -302 66.5t-143 192t-9 303.5l132 904h245l-135 -929q-17 -112 8 -184.5t85 -108t150 -35.5q134 0 226 79.5t116 248.5l135 929h241l-133 -918q-25 -172 -97 -294.5t-199.5 -188t-319.5 -65.5zM954 1647l31 211h231l-31 -211h-231zM560 1647l31 211h232
l-31 -211h-232z" />
    <glyph glyph-name="Yacute" unicode="&#xdd;" horiz-adv-x="1237" 
d="M419 0l88 612l-354 834h259l248 -622l424 622h263l-600 -835l-90 -611h-238zM654 1569l238 291h260l-317 -291h-181z" />
    <glyph glyph-name="Thorn" unicode="&#xde;" horiz-adv-x="1302" 
d="M102 0l204 1446h243l-40 -286h297q154 0 266.5 -45.5t167 -138t34.5 -234.5q-20 -143 -100.5 -238.5t-205.5 -143t-276 -47.5h-302l-44 -313h-244zM419 517h302q72 0 136.5 23t109.5 73t56 129q11 75 -21 122t-91.5 69.5t-134.5 22.5h-296z" />
    <glyph glyph-name="germandbls" unicode="&#xdf;" horiz-adv-x="1141" 
d="M604 -20q-72 0 -135 18.5t-103 49.5l93 154q30 -22 66 -41t92 -19q81 0 139 42t69 121q8 57 -14 92t-64 58t-95 45q-48 22 -89 52t-62.5 76t-12.5 116q12 76 55 126t112 95q36 26 70 51t58.5 56t30.5 76q8 60 -27 97.5t-114 37.5q-93 0 -158.5 -62.5t-80.5 -176.5
l-147 -1044h-221l139 999q15 92 52.5 173t99.5 142.5t150 96.5t203 35q120 0 192.5 -37.5t102 -102.5t16.5 -148q-9 -73 -43.5 -123t-91.5 -87t-135 -72q-43 -23 -62 -38t-23 -41q-3 -25 11 -37t54 -27q56 -26 114 -57t105.5 -75t71 -109.5t10.5 -161.5q-16 -114 -76 -192
t-150.5 -118t-201.5 -40z" />
    <glyph glyph-name="agrave" unicode="&#xe0;" horiz-adv-x="1122" 
d="M354 -20q-96 0 -166 36.5t-103 105t-19 166.5q25 171 157 258t392 91l146 4l10 70q12 85 -32.5 130t-131.5 44q-70 -1 -136.5 -37t-97.5 -114h-203q21 99 86 171t165 110.5t222 38.5q142 0 226.5 -41t116.5 -115t17 -173l-106 -725h-201l6 181q-71 -116 -157.5 -158.5
t-190.5 -42.5zM455 145q43 0 86.5 16.5t81 45t63 63.5t31.5 73l24 163l-119 -2q-88 -1 -157.5 -20t-112.5 -60.5t-54 -110.5q-11 -79 34 -123.5t123 -44.5zM570 1155l-284 291h255l205 -291h-176z" />
    <glyph glyph-name="aacute" unicode="&#xe1;" horiz-adv-x="1116" 
d="M348 -20q-96 0 -166 36.5t-103 105t-19 166.5q25 171 157 258t392 91l146 4l10 70q12 85 -32.5 130t-131.5 44q-70 -1 -136.5 -37t-97.5 -114h-203q21 99 86 171t165 110.5t222 38.5q142 0 226.5 -41t116.5 -115t17 -173l-106 -725h-201l6 181q-71 -116 -157.5 -158.5
t-190.5 -42.5zM449 145q43 0 86.5 16.5t81 45t63 63.5t31.5 73l24 163l-119 -2q-88 -1 -157.5 -20t-112.5 -60.5t-54 -110.5q-11 -79 34 -123.5t123 -44.5zM553 1155l238 291h260l-317 -291h-181z" />
    <glyph glyph-name="acircumflex" unicode="&#xe2;" horiz-adv-x="1116" 
d="M348 -20q-96 0 -166 36.5t-103 105t-19 166.5q25 171 157 258t392 91l146 4l10 70q12 85 -32.5 130t-131.5 44q-70 -1 -136.5 -37t-97.5 -114h-203q21 99 86 171t165 110.5t222 38.5q142 0 226.5 -41t116.5 -115t17 -173l-106 -725h-201l6 181q-71 -116 -157.5 -158.5
t-190.5 -42.5zM449 145q43 0 86.5 16.5t81 45t63 63.5t31.5 73l24 163l-119 -2q-88 -1 -157.5 -20t-112.5 -60.5t-54 -110.5q-11 -79 34 -123.5t123 -44.5zM315 1155l262 244h167l232 -244h-201l-121 135l-150 -135h-189z" />
    <glyph glyph-name="atilde" unicode="&#xe3;" horiz-adv-x="1116" 
d="M348 -20q-96 0 -166 36.5t-103 105t-19 166.5q25 171 157 258t392 91l146 4l10 70q12 85 -32.5 130t-131.5 44q-70 -1 -136.5 -37t-97.5 -114h-203q21 99 86 171t165 110.5t222 38.5q142 0 226.5 -41t116.5 -115t17 -173l-106 -725h-201l6 181q-71 -116 -157.5 -158.5
t-190.5 -42.5zM449 145q43 0 86.5 16.5t81 45t63 63.5t31.5 73l24 163l-119 -2q-88 -1 -157.5 -20t-112.5 -60.5t-54 -110.5q-11 -79 34 -123.5t123 -44.5zM384 1208l-21 123q39 36 82.5 60.5t104.5 24.5q51 0 94.5 -14.5t84.5 -29t84 -14.5q46 0 85.5 20t72.5 43l13 -141
q-31 -23 -80.5 -44.5t-112.5 -21.5q-52 0 -91.5 14t-77.5 27.5t-84 13.5q-48 0 -81.5 -16.5t-72.5 -44.5z" />
    <glyph glyph-name="adieresis" unicode="&#xe4;" horiz-adv-x="1116" 
d="M348 -20q-96 0 -166 36.5t-103 105t-19 166.5q25 171 157 258t392 91l146 4l10 70q12 85 -32.5 130t-131.5 44q-70 -1 -136.5 -37t-97.5 -114h-203q21 99 86 171t165 110.5t222 38.5q142 0 226.5 -41t116.5 -115t17 -173l-106 -725h-201l6 181q-71 -116 -157.5 -158.5
t-190.5 -42.5zM449 145q43 0 86.5 16.5t81 45t63 63.5t31.5 73l24 163l-119 -2q-88 -1 -157.5 -20t-112.5 -60.5t-54 -110.5q-11 -79 34 -123.5t123 -44.5zM733 1232l31 211h231l-31 -211h-231zM339 1232l31 211h232l-31 -211h-232z" />
    <glyph glyph-name="aring" unicode="&#xe5;" horiz-adv-x="1116" 
d="M846 1499l-77 -140q50 -21 76.5 -69.5t17.5 -112.5q-13 -87 -78.5 -142.5t-149.5 -55.5q-82 0 -130 57t-36 145q10 71 60 122t116 64l50 132h151zM761 1175q7 44 -17.5 73.5t-66.5 29.5q-38 0 -72.5 -29.5t-41.5 -73.5q-6 -41 19.5 -73.5t65.5 -32.5q41 0 74 32.5
t39 73.5zM348 -20q-96 0 -166 36.5t-103 105t-19 166.5q25 171 157 258t392 91l146 4l10 70q12 85 -32.5 130t-131.5 44q-70 -1 -136.5 -37t-97.5 -114h-203q21 99 86 171t165 110.5t222 38.5q142 0 226.5 -41t116.5 -115t17 -173l-106 -725h-201l6 181
q-71 -116 -157.5 -158.5t-190.5 -42.5zM449 145q43 0 86.5 16.5t81 45t63 63.5t31.5 73l24 163l-119 -2q-88 -1 -157.5 -20t-112.5 -60.5t-54 -110.5q-11 -79 34 -123.5t123 -44.5z" />
    <glyph glyph-name="ae" unicode="&#xe6;" horiz-adv-x="1773" 
d="M350 -20q-96 0 -166 36.5t-104 105t-20 166.5q23 171 155.5 258t394.5 91l147 4l10 70q11 85 -33 130t-133 44q-70 -1 -135 -37t-96 -114h-204q19 99 83.5 171t164 110.5t222.5 38.5q128 0 210 -41t114 -115q65 75 153 115.5t193 40.5q148 0 239 -65t126 -181.5
t12 -272.5l-12 -74h-685q-14 -88 3.5 -156t66.5 -106.5t128 -38.5q82 0 147.5 38.5t97.5 117.5h218q-33 -108 -109.5 -183t-175.5 -114t-200 -39q-139 0 -237 61.5t-141 175.5q-31 -73 -94 -126.5t-149.5 -82t-190.5 -28.5zM452 145q70 0 127 34.5t94 85t45 100.5l20 141
l-121 -2q-88 -1 -158 -20t-113 -60.5t-53 -110.5q-11 -79 34.5 -123.5t124.5 -44.5zM1007 612h461q11 75 -5 135.5t-61.5 96t-122.5 35.5q-76 0 -133.5 -39t-93 -100.5t-45.5 -127.5z" />
    <glyph glyph-name="ccedilla" unicode="&#xe7;" horiz-adv-x="1059" 
d="M403 -419q-56 0 -106.5 12t-90.5 40l48 89q25 -19 58 -33.5t76 -14.5q48 0 75.5 17.5t32.5 49.5q6 41 -27 62t-119 22q-12 0 -15 3.5t3 13.5l95 168h112l-61 -119q69 -2 106 -25.5t49.5 -57.5t7.5 -68q-7 -51 -43 -86.5t-89 -54t-112 -18.5zM476 -20q-137 0 -234 62.5
t-140.5 182t-18.5 288.5q23 161 98 282.5t191 190t261 68.5q118 0 199.5 -48t122 -133t35.5 -193h-204q0 47 -19 89.5t-58.5 69t-101.5 26.5q-110 0 -191.5 -86t-107.5 -264q-24 -164 28 -261t172 -97q62 0 109.5 28.5t78.5 71t43 85.5h199q-24 -105 -89.5 -187t-161 -128.5
t-211.5 -46.5z" />
    <glyph glyph-name="egrave" unicode="&#xe8;" horiz-adv-x="1109" 
d="M498 -20q-144 0 -244 63.5t-144 181.5t-20 281q23 159 97 282.5t190 194.5t265 71q148 0 239 -65t126 -181.5t12 -272.5l-12 -74h-685q-13 -88 4 -156t66 -106.5t128 -38.5q82 0 147.5 38.5t97.5 117.5h218q-33 -108 -109 -183t-175 -114t-201 -39zM343 612h461
q11 75 -5 135.5t-61.5 96t-122.5 35.5q-76 0 -134 -39t-93 -100.5t-45 -127.5zM565 1155l-284 291h255l205 -291h-176z" />
    <glyph glyph-name="eacute" unicode="&#xe9;" horiz-adv-x="1109" 
d="M498 -20q-144 0 -244 63.5t-144 181.5t-20 281q23 159 97 282.5t190 194.5t265 71q148 0 239 -65t126 -181.5t12 -272.5l-12 -74h-685q-13 -88 4 -156t66 -106.5t128 -38.5q82 0 147.5 38.5t97.5 117.5h218q-33 -108 -109 -183t-175 -114t-201 -39zM343 612h461
q11 75 -5 135.5t-61.5 96t-122.5 35.5q-76 0 -134 -39t-93 -100.5t-45 -127.5zM554 1155l238 291h260l-317 -291h-181z" />
    <glyph glyph-name="ecircumflex" unicode="&#xea;" horiz-adv-x="1109" 
d="M498 -20q-144 0 -244 63.5t-144 181.5t-20 281q23 159 97 282.5t190 194.5t265 71q148 0 239 -65t126 -181.5t12 -272.5l-12 -74h-685q-13 -88 4 -156t66 -106.5t128 -38.5q82 0 147.5 38.5t97.5 117.5h218q-33 -108 -109 -183t-175 -114t-201 -39zM343 612h461
q11 75 -5 135.5t-61.5 96t-122.5 35.5q-76 0 -134 -39t-93 -100.5t-45 -127.5zM326 1155l262 244h167l232 -244h-201l-121 135l-150 -135h-189z" />
    <glyph glyph-name="edieresis" unicode="&#xeb;" horiz-adv-x="1109" 
d="M498 -20q-144 0 -244 63.5t-144 181.5t-20 281q23 159 97 282.5t190 194.5t265 71q148 0 239 -65t126 -181.5t12 -272.5l-12 -74h-685q-13 -88 4 -156t66 -106.5t128 -38.5q82 0 147.5 38.5t97.5 117.5h218q-33 -108 -109 -183t-175 -114t-201 -39zM343 612h461
q11 75 -5 135.5t-61.5 96t-122.5 35.5q-76 0 -134 -39t-93 -100.5t-45 -127.5zM748 1235l31 211h231l-31 -211h-231zM354 1235l31 211h232l-31 -211h-232z" />
    <glyph glyph-name="igrave" unicode="&#xec;" horiz-adv-x="522" 
d="M65 0l152 1034h240l-152 -1034h-240zM261 1155l-193 291h239l128 -289z" />
    <glyph glyph-name="iacute" unicode="&#xed;" horiz-adv-x="522" 
d="M65 0l152 1034h240l-152 -1034h-240zM439 1155l-180 2l177 289h249z" />
    <glyph glyph-name="icircumflex" unicode="&#xee;" horiz-adv-x="522" 
d="M65 0l152 1034h240l-152 -1034h-240zM26 1155l262 244h167l232 -244h-201l-121 135l-150 -135h-189z" />
    <glyph glyph-name="idieresis" unicode="&#xef;" horiz-adv-x="522" 
d="M65 0l152 1034h240l-152 -1034h-240zM447 1235l31 211h231l-31 -211h-231zM53 1235l31 211h232l-31 -211h-232z" />
    <glyph glyph-name="eth" unicode="&#xf0;" horiz-adv-x="1114" 
d="M495 -20q-131 0 -224.5 55.5t-143 156t-49.5 234.5q0 92 27.5 197t89.5 198.5t163.5 152.5t248.5 59q148 0 225 -79.5t92 -222.5l-140 161q-10 113 -56 216.5t-114 196.5t-144 176h201q108 -85 191.5 -204t132 -269t48.5 -327q0 -123 -30 -247t-94.5 -226.5t-169 -165
t-254.5 -62.5zM517 165q82 0 137 44t87.5 113t46 145.5t13.5 139.5q0 122 -50.5 185t-147.5 63q-81 0 -136.5 -42t-88.5 -109t-47.5 -141t-14.5 -138q0 -117 49 -188.5t152 -71.5zM399 1120l-19 113l690 198l18 -113z" />
    <glyph glyph-name="ntilde" unicode="&#xf1;" horiz-adv-x="1144" 
d="M65 0l152 1034h233l-18 -138q34 40 78 74t102.5 55t137.5 21q93 0 166 -43t109.5 -124t18.5 -194l-100 -685h-240l97 657q14 94 -32.5 144.5t-124.5 50.5q-55 0 -107 -19.5t-88 -57.5t-44 -94l-101 -681h-239zM419 1208l-21 123q39 36 82.5 60.5t104.5 24.5
q51 0 94.5 -14.5t84.5 -29t84 -14.5q46 0 85.5 20t72.5 43l13 -141q-31 -23 -80.5 -44.5t-112.5 -21.5q-52 0 -91.5 14t-77.5 27.5t-84 13.5q-48 0 -81.5 -16.5t-72.5 -44.5z" />
    <glyph glyph-name="ograve" unicode="&#xf2;" horiz-adv-x="1108" 
d="M478 -20q-142 0 -239 63.5t-138.5 182.5t-17.5 286q23 162 97 284t189.5 190t262.5 68q143 0 239 -65t136.5 -186t16.5 -291q-23 -157 -95 -276.5t-186 -187.5t-265 -68zM508 165q79 0 137 46t94.5 126t50.5 182q13 95 1 175t-56 128.5t-130 48.5q-82 0 -140.5 -44.5
t-95 -124t-50.5 -183.5q-12 -94 -0.5 -174.5t56.5 -130t133 -49.5zM539 1155l-284 291h255l205 -291h-176z" />
    <glyph glyph-name="oacute" unicode="&#xf3;" horiz-adv-x="1108" 
d="M478 -20q-142 0 -239 63.5t-138.5 182.5t-17.5 286q23 162 97 284t189.5 190t262.5 68q143 0 239 -65t136.5 -186t16.5 -291q-23 -157 -95 -276.5t-186 -187.5t-265 -68zM508 165q79 0 137 46t94.5 126t50.5 182q13 95 1 175t-56 128.5t-130 48.5q-82 0 -140.5 -44.5
t-95 -124t-50.5 -183.5q-12 -94 -0.5 -174.5t56.5 -130t133 -49.5zM528 1155l238 291h260l-317 -291h-181z" />
    <glyph glyph-name="ocircumflex" unicode="&#xf4;" horiz-adv-x="1108" 
d="M478 -20q-142 0 -239 63.5t-138.5 182.5t-17.5 286q23 162 97 284t189.5 190t262.5 68q143 0 239 -65t136.5 -186t16.5 -291q-23 -157 -95 -276.5t-186 -187.5t-265 -68zM508 165q79 0 137 46t94.5 126t50.5 182q13 95 1 175t-56 128.5t-130 48.5q-82 0 -140.5 -44.5
t-95 -124t-50.5 -183.5q-12 -94 -0.5 -174.5t56.5 -130t133 -49.5zM300 1155l262 244h167l232 -244h-201l-121 135l-150 -135h-189z" />
    <glyph glyph-name="otilde" unicode="&#xf5;" horiz-adv-x="1108" 
d="M478 -20q-142 0 -239 63.5t-138.5 182.5t-17.5 286q23 162 97 284t189.5 190t262.5 68q143 0 239 -65t136.5 -186t16.5 -291q-23 -157 -95 -276.5t-186 -187.5t-265 -68zM508 165q79 0 137 46t94.5 126t50.5 182q13 95 1 175t-56 128.5t-130 48.5q-82 0 -140.5 -44.5
t-95 -124t-50.5 -183.5q-12 -94 -0.5 -174.5t56.5 -130t133 -49.5zM368 1208l-21 123q39 36 82.5 60.5t104.5 24.5q51 0 94.5 -14.5t84.5 -29t84 -14.5q46 0 85.5 20t72.5 43l13 -141q-31 -23 -80.5 -44.5t-112.5 -21.5q-52 0 -91.5 14t-77.5 27.5t-84 13.5
q-48 0 -81.5 -16.5t-72.5 -44.5z" />
    <glyph glyph-name="odieresis" unicode="&#xf6;" horiz-adv-x="1108" 
d="M478 -20q-142 0 -239 63.5t-138.5 182.5t-17.5 286q23 162 97 284t189.5 190t262.5 68q143 0 239 -65t136.5 -186t16.5 -291q-23 -157 -95 -276.5t-186 -187.5t-265 -68zM508 165q79 0 137 46t94.5 126t50.5 182q13 95 1 175t-56 128.5t-130 48.5q-82 0 -140.5 -44.5
t-95 -124t-50.5 -183.5q-12 -94 -0.5 -174.5t56.5 -130t133 -49.5zM721 1235l31 211h231l-31 -211h-231zM327 1235l31 211h232l-31 -211h-232z" />
    <glyph glyph-name="divide" unicode="&#xf7;" horiz-adv-x="1115" 
d="M136 636l27 181l875 1l-27 -181zM381 222l39 261h264l-38 -261h-265zM493 972l38 261h265l-39 -261h-264z" />
    <glyph glyph-name="oslash" unicode="&#xf8;" horiz-adv-x="1097" 
d="M71 -13l-87 92l1012 965l85 -92zM452 -20q-142 0 -239 63.5t-138.5 182.5t-17.5 286q23 162 97 284t189.5 190t262.5 68q143 0 239 -65t136.5 -186t16.5 -291q-23 -157 -95 -276.5t-186 -187.5t-265 -68zM481 165q80 0 138 46t94.5 126t50.5 182q13 95 1 175t-56.5 128.5
t-129.5 48.5q-82 0 -140.5 -44.5t-95 -124t-50.5 -183.5q-12 -94 -0.5 -174.5t56.5 -130t132 -49.5z" />
    <glyph glyph-name="ugrave" unicode="&#xf9;" horiz-adv-x="1151" 
d="M429 -20q-72 0 -137 22.5t-113 66t-71 107.5t-11 149l99 709h241l-96 -681q-12 -84 32 -138t145 -54q94 0 157 51.5t77 148.5l95 673h238l-145 -1034h-184l1 202q-29 -85 -82.5 -133.5t-117.5 -68.5t-128 -20zM566 1155l-284 291h255l205 -291h-176z" />
    <glyph glyph-name="uacute" unicode="&#xfa;" horiz-adv-x="1151" 
d="M429 -20q-72 0 -137 22.5t-113 66t-71 107.5t-11 149l99 709h241l-96 -681q-12 -84 32 -138t145 -54q94 0 157 51.5t77 148.5l95 673h238l-145 -1034h-184l1 202q-29 -85 -82.5 -133.5t-117.5 -68.5t-128 -20zM556 1155l238 291h260l-317 -291h-181z" />
    <glyph glyph-name="ucircumflex" unicode="&#xfb;" horiz-adv-x="1151" 
d="M429 -20q-72 0 -137 22.5t-113 66t-71 107.5t-11 149l99 709h241l-96 -681q-12 -84 32 -138t145 -54q94 0 157 51.5t77 148.5l95 673h238l-145 -1034h-184l1 202q-29 -85 -82.5 -133.5t-117.5 -68.5t-128 -20zM328 1155l262 244h167l232 -244h-201l-121 135l-150 -135
h-189z" />
    <glyph glyph-name="udieresis" unicode="&#xfc;" horiz-adv-x="1151" 
d="M429 -20q-72 0 -137 22.5t-113 66t-71 107.5t-11 149l99 709h241l-96 -681q-12 -84 32 -138t145 -54q94 0 157 51.5t77 148.5l95 673h238l-145 -1034h-184l1 202q-29 -85 -82.5 -133.5t-117.5 -68.5t-128 -20zM749 1235l31 211h231l-31 -211h-231zM355 1235l31 211h232
l-31 -211h-232z" />
    <glyph glyph-name="yacute" unicode="&#xfd;" horiz-adv-x="1064" 
d="M139 -330q-95 0 -131.5 15.5l-36.5 15.5l23 156l100 -3q81 -5 125 13.5t64.5 45t30.5 46.5l36 76l-241 999h239l153 -731l366 731h234l-563 -1072q-65 -117 -128.5 -180.5t-130 -87.5t-140.5 -24zM516 1155l238 291h260l-317 -291h-181z" />
    <glyph glyph-name="thorn" unicode="&#xfe;" horiz-adv-x="1165" 
d="M20 -322l259 1768h240l-79 -548q33 32 77 68.5t105.5 62t144.5 25.5q111 0 191.5 -57t116 -174t8.5 -295q-25 -183 -96 -304.5t-173 -182.5t-221 -61q-78 0 -137.5 26t-104.5 73q-17 18 -23 16t-10 -28l-58 -389h-240zM534 140q75 0 137 41t106 127t64 222
q19 133 -1.5 212.5t-70 115t-119.5 35.5q-61 0 -113 -28t-85.5 -70t-41.5 -86l-65 -458q36 -50 81 -80.5t108 -30.5z" />
    <glyph glyph-name="ydieresis" unicode="&#xff;" horiz-adv-x="1064" 
d="M139 -330q-95 0 -131.5 15.5l-36.5 15.5l23 156l100 -3q81 -5 125 13.5t64.5 45t30.5 46.5l36 76l-241 999h239l153 -731l366 731h234l-563 -1072q-65 -117 -128.5 -180.5t-130 -87.5t-140.5 -24zM709 1235l31 211h231l-31 -211h-231zM315 1235l31 211h232l-31 -211h-232
z" />
    <glyph glyph-name="Amacron" unicode="&#x100;" horiz-adv-x="1394" 
d="M-3 0l711 1446h257l286 -1446h-239l-69 363h-527l-178 -363h-241zM503 579h412l-112 630zM552 1631l23 161h635l-24 -161h-634z" />
    <glyph glyph-name="amacron" unicode="&#x101;" horiz-adv-x="1116" 
d="M348 -20q-96 0 -166 36.5t-103 105t-19 166.5q25 171 157 258t392 91l146 4l10 70q12 85 -32.5 130t-131.5 44q-70 -1 -136.5 -37t-97.5 -114h-203q21 99 86 171t165 110.5t222 38.5q142 0 226.5 -41t116.5 -115t17 -173l-106 -725h-201l6 181q-71 -116 -157.5 -158.5
t-190.5 -42.5zM449 145q43 0 86.5 16.5t81 45t63 63.5t31.5 73l24 163l-119 -2q-88 -1 -157.5 -20t-112.5 -60.5t-54 -110.5q-11 -79 34 -123.5t123 -44.5zM343 1219l23 161h635l-24 -161h-634z" />
    <glyph glyph-name="Abreve" unicode="&#x102;" horiz-adv-x="1394" 
d="M-3 0l711 1446h257l286 -1446h-239l-69 363h-527l-178 -363h-241zM503 579h412l-112 630zM853 1568q-79 0 -139 29t-97 82.5t-46 125.5h153q11 -25 28 -49.5t46 -41.5t74 -17q65 0 109.5 34t73.5 74h153q-30 -68 -82.5 -121.5t-122 -84.5t-150.5 -31z" />
    <glyph glyph-name="abreve" unicode="&#x103;" horiz-adv-x="1116" 
d="M348 -20q-96 0 -166 36.5t-103 105t-19 166.5q25 171 157 258t392 91l146 4l10 70q12 85 -32.5 130t-131.5 44q-70 -1 -136.5 -37t-97.5 -114h-203q21 99 86 171t165 110.5t222 38.5q142 0 226.5 -41t116.5 -115t17 -173l-106 -725h-201l6 181q-71 -116 -157.5 -158.5
t-190.5 -42.5zM449 145q43 0 86.5 16.5t81 45t63 63.5t31.5 73l24 163l-119 -2q-88 -1 -157.5 -20t-112.5 -60.5t-54 -110.5q-11 -79 34 -123.5t123 -44.5zM643 1154q-79 0 -139 29t-97 82.5t-46 125.5h153q11 -25 28 -49.5t46 -41.5t74 -17q65 0 109.5 34t73.5 74h153
q-30 -68 -82.5 -121.5t-122 -84.5t-150.5 -31z" />
    <glyph glyph-name="Aogonek" unicode="&#x104;" horiz-adv-x="1394" 
d="M-3 0l711 1446h257l286 -1446h-239l-69 363h-527l-178 -363h-241zM503 579h412l-112 630zM1039 -339q-96 0 -142.5 42t-35.5 119q8 57 53.5 104.5t162.5 85.5l170 -9q-106 -40 -151.5 -75t-52.5 -79q-4 -34 11.5 -51t55.5 -17q46 0 82 13t63 27l-17 -116
q-28 -15 -82.5 -29.5t-116.5 -14.5z" />
    <glyph glyph-name="aogonek" unicode="&#x105;" horiz-adv-x="1091" 
d="M348 -20q-96 0 -166 36.5t-103 105t-19 166.5q25 171 157 258t392 91l146 4l10 70q12 85 -32.5 130t-131.5 44q-70 -1 -136.5 -37t-97.5 -114h-203q21 99 86 171t165 110.5t222 38.5q142 0 226.5 -41t116.5 -115t17 -173l-106 -725h-201l6 181q-71 -116 -157.5 -158.5
t-190.5 -42.5zM449 145q43 0 86.5 16.5t81 45t63 63.5t31.5 73l24 163l-119 -2q-88 -1 -157.5 -20t-112.5 -60.5t-54 -110.5q-11 -79 34 -123.5t123 -44.5zM670 -332q-96 0 -142.5 42t-35.5 119q8 57 53.5 104.5t162.5 85.5l170 -9q-106 -40 -151.5 -75t-52.5 -79
q-4 -34 11.5 -51t55.5 -17q46 0 82 13t63 27l-17 -116q-28 -15 -82.5 -29.5t-116.5 -14.5z" />
    <glyph glyph-name="Cacute" unicode="&#x106;" horiz-adv-x="1376" 
d="M642 -20q-179 0 -298.5 80.5t-174.5 231t-40 361.5q11 171 62.5 319t142.5 259t221 173t298 62q151 0 259.5 -62t166 -171.5t55.5 -250.5h-252q-3 80 -33.5 143t-88 100t-145.5 37q-103 0 -178.5 -49t-127 -134.5t-80.5 -197t-39 -239.5q-21 -236 51 -347t224 -111
q88 0 156.5 40.5t116.5 108t73 147.5h253q-25 -98 -74.5 -188t-124.5 -160.5t-180 -111t-243 -40.5zM764 1567l238 291h260l-317 -291h-181z" />
    <glyph glyph-name="cacute" unicode="&#x107;" horiz-adv-x="1048" 
d="M476 -20q-137 0 -234 62.5t-140.5 182t-18.5 288.5q23 161 98 282.5t191 190t261 68.5q118 0 199.5 -48t122 -133t35.5 -193h-204q0 47 -19 89.5t-58.5 69t-101.5 26.5q-110 0 -191.5 -86t-107.5 -264q-24 -164 28 -261t172 -97q62 0 109.5 28.5t78.5 71t43 85.5h199
q-24 -105 -89.5 -187t-161 -128.5t-211.5 -46.5zM534 1155l238 291h260l-317 -291h-181z" />
    <glyph glyph-name="Ccircumflex" unicode="&#x108;" horiz-adv-x="1376" 
d="M642 -20q-179 0 -298.5 80.5t-174.5 231t-40 361.5q11 171 62.5 319t142.5 259t221 173t298 62q151 0 259.5 -62t166 -171.5t55.5 -250.5h-252q-3 80 -33.5 143t-88 100t-145.5 37q-103 0 -178.5 -49t-127 -134.5t-80.5 -197t-39 -239.5q-21 -236 51 -347t224 -111
q88 0 156.5 40.5t116.5 108t73 147.5h253q-25 -98 -74.5 -188t-124.5 -160.5t-180 -111t-243 -40.5zM536 1567l262 244h167l232 -244h-201l-121 135l-150 -135h-189z" />
    <glyph glyph-name="ccircumflex" unicode="&#x109;" horiz-adv-x="1059" 
d="M476 -20q-137 0 -234 62.5t-140.5 182t-18.5 288.5q23 161 98 282.5t191 190t261 68.5q118 0 199.5 -48t122 -133t35.5 -193h-204q0 47 -19 89.5t-58.5 69t-101.5 26.5q-110 0 -191.5 -86t-107.5 -264q-24 -164 28 -261t172 -97q62 0 109.5 28.5t78.5 71t43 85.5h199
q-24 -105 -89.5 -187t-161 -128.5t-211.5 -46.5zM316 1155l262 244h167l232 -244h-201l-121 135l-150 -135h-189z" />
    <glyph glyph-name="Cdotaccent" unicode="&#x10a;" horiz-adv-x="1376" 
d="M642 -20q-179 0 -298.5 80.5t-174.5 231t-40 361.5q11 171 62.5 319t142.5 259t221 173t298 62q151 0 259.5 -62t166 -171.5t55.5 -250.5h-252q-3 80 -33.5 143t-88 100t-145.5 37q-103 0 -178.5 -49t-127 -134.5t-80.5 -197t-39 -239.5q-21 -236 51 -347t224 -111
q88 0 156.5 40.5t116.5 108t73 147.5h253q-25 -98 -74.5 -188t-124.5 -160.5t-180 -111t-243 -40.5zM762 1647l31 211h231l-31 -211h-231z" />
    <glyph glyph-name="cdotaccent" unicode="&#x10b;" horiz-adv-x="1059" 
d="M476 -20q-137 0 -234 62.5t-140.5 182t-18.5 288.5q23 161 98 282.5t191 190t261 68.5q118 0 199.5 -48t122 -133t35.5 -193h-204q0 47 -19 89.5t-58.5 69t-101.5 26.5q-110 0 -191.5 -86t-107.5 -264q-24 -164 28 -261t172 -97q62 0 109.5 28.5t78.5 71t43 85.5h199
q-24 -105 -89.5 -187t-161 -128.5t-211.5 -46.5zM543 1235l31 211h231l-31 -211h-231z" />
    <glyph glyph-name="Ccaron" unicode="&#x10c;" horiz-adv-x="1376" 
d="M642 -20q-179 0 -298.5 80.5t-174.5 231t-40 361.5q11 171 62.5 319t142.5 259t221 173t298 62q151 0 259.5 -62t166 -171.5t55.5 -250.5h-252q-3 80 -33.5 143t-88 100t-145.5 37q-103 0 -178.5 -49t-127 -134.5t-80.5 -197t-39 -239.5q-21 -236 51 -347t224 -111
q88 0 156.5 40.5t116.5 108t73 147.5h253q-25 -98 -74.5 -188t-124.5 -160.5t-180 -111t-243 -40.5zM779 1567l-214 244h190l122 -143l151 143h199l-278 -244h-170z" />
    <glyph glyph-name="ccaron" unicode="&#x10d;" horiz-adv-x="1059" 
d="M476 -20q-137 0 -234 62.5t-140.5 182t-18.5 288.5q23 161 98 282.5t191 190t261 68.5q118 0 199.5 -48t122 -133t35.5 -193h-204q0 47 -19 89.5t-58.5 69t-101.5 26.5q-110 0 -191.5 -86t-107.5 -264q-24 -164 28 -261t172 -97q62 0 109.5 28.5t78.5 71t43 85.5h199
q-24 -105 -89.5 -187t-161 -128.5t-211.5 -46.5zM559 1155l-214 244h190l122 -143l151 143h199l-278 -244h-170z" />
    <glyph glyph-name="Dcaron" unicode="&#x10e;" horiz-adv-x="1384" 
d="M103 0l207 1446q8 0 68.5 -0.5t135.5 -0.5q139 0 262 -14t222.5 -48.5t171.5 -97.5t110.5 -161.5t38.5 -239.5q0 -95 -15.5 -196.5t-52 -200.5t-99 -186.5t-156 -155t-222.5 -106.5t-300 -39h-371zM377 201h119q145 0 253 52t179.5 144t107 215t35.5 265q0 134 -48 215
t-139 117t-219 36h-137zM852 1567l-214 244h190l122 -143l151 143h199l-278 -244h-170z" />
    <glyph glyph-name="dcaron" unicode="&#x10f;" horiz-adv-x="1160" 
d="M434 -20q-198 0 -291.5 141t-58.5 401q33 243 155 387.5t319 144.5q61 0 109 -15.5t84 -40.5t59.5 -55t35.5 -60l82 603h241l-201 -1486h-178l2 212q-16 -37 -44.5 -77.5t-71.5 -75.5t-102.5 -57t-139.5 -22zM508 159q125 0 194 85.5t96 283.5q14 113 -1 190t-61.5 116
t-128.5 39q-104 0 -182.5 -81t-102.5 -264q-25 -182 24.5 -275.5t161.5 -93.5zM1205 1072l104 193l-59 11l30 210h173l-32 -220l-108 -194h-108z" />
    <glyph glyph-name="Dcroat" unicode="&#x110;" horiz-adv-x="1476" 
d="M91 626l21 184h737l-21 -184h-737zM195 0l207 1446q9 0 69 -0.5t135 -0.5q140 0 262.5 -14t222 -48.5t171.5 -97.5t110.5 -161.5t38.5 -239.5q0 -95 -15.5 -196.5t-52 -200.5t-99 -186.5t-156 -155t-222.5 -106.5t-299 -39h-372zM469 201h119q145 0 253 52t179.5 144
t107 215t35.5 265q0 134 -48 215t-139 117t-219 36h-137z" />
    <glyph glyph-name="dcroat" unicode="&#x111;" horiz-adv-x="1201" 
d="M585 1174l15 143h648l-15 -143h-648zM434 -20q-198 0 -291.5 141t-58.5 401q33 243 155 387.5t319 144.5q61 0 109 -15.5t84 -40.5t59.5 -55t35.5 -60l82 603h241l-201 -1486h-178l2 212q-16 -37 -44.5 -77.5t-71.5 -75.5t-102.5 -57t-139.5 -22zM508 159q125 0 194 85.5
t96 283.5q14 113 -1 190t-61.5 116t-128.5 39q-104 0 -182.5 -81t-102.5 -264q-25 -182 24.5 -275.5t161.5 -93.5z" />
    <glyph glyph-name="Emacron" unicode="&#x112;" horiz-adv-x="1231" 
d="M102 0l213 1446h921l-32 -209h-680l-59 -405h599l-30 -206h-600l-61 -414l696 -1l-32 -211h-935zM470 1631l23 161h635l-24 -161h-634z" />
    <glyph glyph-name="emacron" unicode="&#x113;" horiz-adv-x="1109" 
d="M498 -20q-144 0 -244 63.5t-144 181.5t-20 281q23 159 97 282.5t190 194.5t265 71q148 0 239 -65t126 -181.5t12 -272.5l-12 -74h-685q-13 -88 4 -156t66 -106.5t128 -38.5q82 0 147.5 38.5t97.5 117.5h218q-33 -108 -109 -183t-175 -114t-201 -39zM343 612h461
q11 75 -5 135.5t-61.5 96t-122.5 35.5q-76 0 -134 -39t-93 -100.5t-45 -127.5zM355 1219l23 161h635l-24 -161h-634z" />
    <glyph glyph-name="Ebreve" unicode="&#x114;" horiz-adv-x="1231" 
d="M102 0l213 1446h921l-32 -209h-680l-59 -405h599l-30 -206h-600l-61 -414l696 -1l-32 -211h-935zM771 1568q-79 0 -139 29t-97 82.5t-46 125.5h153q11 -25 28 -49.5t46 -41.5t74 -17q65 0 109.5 34t73.5 74h153q-30 -68 -82.5 -121.5t-122 -84.5t-150.5 -31z" />
    <glyph glyph-name="ebreve" unicode="&#x115;" horiz-adv-x="1109" 
d="M498 -20q-144 0 -244 63.5t-144 181.5t-20 281q23 159 97 282.5t190 194.5t265 71q148 0 239 -65t126 -181.5t12 -272.5l-12 -74h-685q-13 -88 4 -156t66 -106.5t128 -38.5q82 0 147.5 38.5t97.5 117.5h218q-33 -108 -109 -183t-175 -114t-201 -39zM343 612h461
q11 75 -5 135.5t-61.5 96t-122.5 35.5q-76 0 -134 -39t-93 -100.5t-45 -127.5zM655 1156q-79 0 -139 29t-97 82.5t-46 125.5h153q11 -25 28 -49.5t46 -41.5t74 -17q65 0 109.5 34t73.5 74h153q-30 -68 -82.5 -121.5t-122 -84.5t-150.5 -31z" />
    <glyph glyph-name="Edotaccent" unicode="&#x116;" horiz-adv-x="1231" 
d="M102 0l213 1446h921l-32 -209h-680l-59 -405h599l-30 -206h-600l-61 -414l696 -1l-32 -211h-935zM669 1647l31 211h231l-31 -211h-231z" />
    <glyph glyph-name="edotaccent" unicode="&#x117;" horiz-adv-x="1109" 
d="M498 -20q-144 0 -244 63.5t-144 181.5t-20 281q23 159 97 282.5t190 194.5t265 71q148 0 239 -65t126 -181.5t12 -272.5l-12 -74h-685q-13 -88 4 -156t66 -106.5t128 -38.5q82 0 147.5 38.5t97.5 117.5h218q-33 -108 -109 -183t-175 -114t-201 -39zM343 612h461
q11 75 -5 135.5t-61.5 96t-122.5 35.5q-76 0 -134 -39t-93 -100.5t-45 -127.5zM553 1235l31 211h231l-31 -211h-231z" />
    <glyph glyph-name="Eogonek" unicode="&#x118;" horiz-adv-x="1231" 
d="M102 0l213 1446h921l-32 -209h-680l-59 -405h599l-30 -206h-600l-61 -414l696 -1l-32 -211h-935zM828 -336q-96 0 -142.5 42t-35.5 119q8 57 53.5 104.5t162.5 85.5l170 -9q-106 -40 -151.5 -75t-52.5 -79q-4 -34 11.5 -51t55.5 -17q46 0 82 13t63 27l-17 -116
q-28 -15 -82.5 -29.5t-116.5 -14.5z" />
    <glyph glyph-name="eogonek" unicode="&#x119;" horiz-adv-x="1109" 
d="M642 1054q148 0 239 -65t126 -181.5t12 -272.5l-12 -74h-685q-13 -88 4 -156t66 -106.5t128 -38.5q82 0 147.5 38.5t97.5 117.5h218q-32 -106 -100 -175t-162 -113q-83 -38 -130.5 -73.5t-54.5 -78.5q-3 -34 12 -51.5t56 -17.5q45 0 81 13.5t63 27.5l-17 -116
q-28 -16 -82.5 -30.5t-116.5 -14.5q-96 0 -142.5 42.5t-35.5 119.5q5 37 33.5 72.5t65.5 61.5q-130 9 -219.5 74.5t-128 180t-15.5 268.5q23 159 97 282.5t190 194.5t265 71zM343 612h461q11 75 -5 135.5t-61.5 96t-122.5 35.5q-76 0 -134 -39t-93 -100.5t-45 -127.5z" />
    <glyph glyph-name="Ecaron" unicode="&#x11a;" horiz-adv-x="1231" 
d="M102 0l213 1446h921l-32 -209h-680l-59 -405h599l-30 -206h-600l-61 -414l696 -1l-32 -211h-935zM685 1567l-214 244h190l122 -143l151 143h199l-278 -244h-170z" />
    <glyph glyph-name="ecaron" unicode="&#x11b;" horiz-adv-x="1097" 
d="M498 -20q-144 0 -244 63.5t-144 181.5t-20 281q23 159 97 282.5t190 194.5t265 71q148 0 239 -65t126 -181.5t12 -272.5l-12 -74h-685q-13 -88 4 -156t66 -106.5t128 -38.5q82 0 147.5 38.5t97.5 117.5h218q-33 -108 -109 -183t-175 -114t-201 -39zM343 612h461
q11 75 -5 135.5t-61.5 96t-122.5 35.5q-76 0 -134 -39t-93 -100.5t-45 -127.5zM565 1155l-214 244h190l122 -143l151 143h199l-278 -244h-170z" />
    <glyph glyph-name="Gcircumflex" unicode="&#x11c;" horiz-adv-x="1455" 
d="M635 -20q-188 0 -312 89t-174.5 254.5t-16.5 395.5q35 232 137 400t255 257.5t342 89.5q155 0 266.5 -68.5t168 -179.5t43.5 -236h-253q-2 74 -33.5 136.5t-89 100.5t-139.5 38q-104 0 -193 -55t-152.5 -172.5t-91.5 -304.5q-21 -148 -7 -249.5t56.5 -163t105.5 -89
t137 -27.5q72 0 131 26t103 68t72.5 90.5t38.5 94.5l25 106h-308l26 172l558 -2l-109 -751h-170l29 203q-44 -55 -105 -106t-144.5 -84t-195.5 -33zM536 1567l262 244h167l232 -244h-201l-121 135l-150 -135h-189z" />
    <glyph glyph-name="gcircumflex" unicode="&#x11d;" horiz-adv-x="1211" 
d="M472 -342q-257 0 -385.5 74t-111.5 200q7 52 37.5 87.5t68.5 58.5t70 36t43 19q-13 9 -38 26t-44 47t-12 77q6 48 58 89.5t155 61.5q-85 47 -126 128.5t-28 173.5q13 94 75.5 165t168 110t247.5 39q104 0 167 -24t111 -62q23 9 61 24.5t82 33t85.5 34t69.5 27.5l-24 -203
l-180 -37q19 -66 11 -129q-12 -88 -70 -161.5t-159 -118t-244 -44.5q-19 0 -44.5 1t-37.5 2q-79 -1 -112 -13.5t-35 -34.5q1 -28 41 -40t122 -19q38 -3 92.5 -5.5t117.5 -7.5q175 -11 255 -91.5t63 -207.5q-20 -139 -157 -227.5t-393 -88.5zM513 -199q129 0 197 39.5
t78 114.5q6 49 -29 80t-115 36l-247 17q-41 2 -82 -17t-69 -53t-34 -76q-9 -69 63.5 -105t237.5 -36zM568 533q95 0 160.5 52t77.5 145q12 87 -34 135.5t-133 48.5q-96 0 -163 -55.5t-80 -151.5q-11 -82 34 -128t138 -46zM370 1155l262 244h167l232 -244h-201l-121 135
l-150 -135h-189z" />
    <glyph glyph-name="Gbreve" unicode="&#x11e;" horiz-adv-x="1455" 
d="M635 -20q-188 0 -312 89t-174.5 254.5t-16.5 395.5q35 232 137 400t255 257.5t342 89.5q155 0 266.5 -68.5t168 -179.5t43.5 -236h-253q-2 74 -33.5 136.5t-89 100.5t-139.5 38q-104 0 -193 -55t-152.5 -172.5t-91.5 -304.5q-21 -148 -7 -249.5t56.5 -163t105.5 -89
t137 -27.5q72 0 131 26t103 68t72.5 90.5t38.5 94.5l25 106h-308l26 172l558 -2l-109 -751h-170l29 203q-44 -55 -105 -106t-144.5 -84t-195.5 -33zM865 1568q-79 0 -139 29t-97 82.5t-46 125.5h153q11 -25 28 -49.5t46 -41.5t74 -17q65 0 109.5 34t73.5 74h153
q-30 -68 -82.5 -121.5t-122 -84.5t-150.5 -31z" />
    <glyph glyph-name="gbreve" unicode="&#x11f;" horiz-adv-x="1211" 
d="M472 -342q-257 0 -385.5 74t-111.5 200q7 52 37.5 87.5t68.5 58.5t70 36t43 19q-13 9 -38 26t-44 47t-12 77q6 48 58 89.5t155 61.5q-85 47 -126 128.5t-28 173.5q13 94 75.5 165t168 110t247.5 39q104 0 167 -24t111 -62q23 9 61 24.5t82 33t85.5 34t69.5 27.5l-24 -203
l-180 -37q19 -66 11 -129q-12 -88 -70 -161.5t-159 -118t-244 -44.5q-19 0 -44.5 1t-37.5 2q-79 -1 -112 -13.5t-35 -34.5q1 -28 41 -40t122 -19q38 -3 92.5 -5.5t117.5 -7.5q175 -11 255 -91.5t63 -207.5q-20 -139 -157 -227.5t-393 -88.5zM513 -199q129 0 197 39.5
t78 114.5q6 49 -29 80t-115 36l-247 17q-41 2 -82 -17t-69 -53t-34 -76q-9 -69 63.5 -105t237.5 -36zM568 533q95 0 160.5 52t77.5 145q12 87 -34 135.5t-133 48.5q-96 0 -163 -55.5t-80 -151.5q-11 -82 34 -128t138 -46zM699 1156q-79 0 -139 29t-97 82.5t-46 125.5h153
q11 -25 28 -49.5t46 -41.5t74 -17q65 0 109.5 34t73.5 74h153q-30 -68 -82.5 -121.5t-122 -84.5t-150.5 -31z" />
    <glyph glyph-name="Gdotaccent" unicode="&#x120;" horiz-adv-x="1455" 
d="M635 -20q-188 0 -312 89t-174.5 254.5t-16.5 395.5q35 232 137 400t255 257.5t342 89.5q155 0 266.5 -68.5t168 -179.5t43.5 -236h-253q-2 74 -33.5 136.5t-89 100.5t-139.5 38q-104 0 -193 -55t-152.5 -172.5t-91.5 -304.5q-21 -148 -7 -249.5t56.5 -163t105.5 -89
t137 -27.5q72 0 131 26t103 68t72.5 90.5t38.5 94.5l25 106h-308l26 172l558 -2l-109 -751h-170l29 203q-44 -55 -105 -106t-144.5 -84t-195.5 -33zM763 1647l31 211h231l-31 -211h-231z" />
    <glyph glyph-name="gdotaccent" unicode="&#x121;" horiz-adv-x="1211" 
d="M472 -342q-257 0 -385.5 74t-111.5 200q7 52 37.5 87.5t68.5 58.5t70 36t43 19q-13 9 -38 26t-44 47t-12 77q6 48 58 89.5t155 61.5q-85 47 -126 128.5t-28 173.5q13 94 75.5 165t168 110t247.5 39q104 0 167 -24t111 -62q23 9 61 24.5t82 33t85.5 34t69.5 27.5l-24 -203
l-180 -37q19 -66 11 -129q-12 -88 -70 -161.5t-159 -118t-244 -44.5q-19 0 -44.5 1t-37.5 2q-79 -1 -112 -13.5t-35 -34.5q1 -28 41 -40t122 -19q38 -3 92.5 -5.5t117.5 -7.5q175 -11 255 -91.5t63 -207.5q-20 -139 -157 -227.5t-393 -88.5zM513 -199q129 0 197 39.5
t78 114.5q6 49 -29 80t-115 36l-247 17q-41 2 -82 -17t-69 -53t-34 -76q-9 -69 63.5 -105t237.5 -36zM568 533q95 0 160.5 52t77.5 145q12 87 -34 135.5t-133 48.5q-96 0 -163 -55.5t-80 -151.5q-11 -82 34 -128t138 -46zM597 1235l31 211h231l-31 -211h-231z" />
    <glyph glyph-name="uni0122" unicode="&#x122;" horiz-adv-x="1455" 
d="M635 -20q-188 0 -312 89t-174.5 254.5t-16.5 395.5q35 232 137 400t255 257.5t342 89.5q155 0 266.5 -68.5t168 -179.5t43.5 -236h-253q-2 74 -33.5 136.5t-89 100.5t-139.5 38q-104 0 -193 -55t-152.5 -172.5t-91.5 -304.5q-21 -148 -7 -249.5t56.5 -163t105.5 -89
t137 -27.5q72 0 131 26t103 68t72.5 90.5t38.5 94.5l25 106h-308l26 172l558 -2l-109 -751h-170l29 203q-44 -55 -105 -106t-144.5 -84t-195.5 -33zM450 -413l104 138l-70 7l25 173h216l-21 -144l-165 -174h-89z" />
    <glyph glyph-name="uni0123" unicode="&#x123;" horiz-adv-x="1211" 
d="M472 -342q-257 0 -385.5 74t-111.5 200q7 52 37.5 87.5t68.5 58.5t70 36t43 19q-13 9 -38 26t-44 47t-12 77q6 48 58 89.5t155 61.5q-85 47 -126 128.5t-28 173.5q13 94 75.5 165t168 110t247.5 39q104 0 167 -24t111 -62q23 9 61 24.5t82 33t85.5 34t69.5 27.5l-24 -203
l-180 -37q19 -66 11 -129q-12 -88 -70 -161.5t-159 -118t-244 -44.5q-19 0 -44.5 1t-37.5 2q-79 -1 -112 -13.5t-35 -34.5q1 -28 41 -40t122 -19q38 -3 92.5 -5.5t117.5 -7.5q175 -11 255 -91.5t63 -207.5q-20 -139 -157 -227.5t-393 -88.5zM513 -199q129 0 197 39.5
t78 114.5q6 49 -29 80t-115 36l-247 17q-41 2 -82 -17t-69 -53t-34 -76q-9 -69 63.5 -105t237.5 -36zM568 533q95 0 160.5 52t77.5 145q12 87 -34 135.5t-133 48.5q-96 0 -163 -55.5t-80 -151.5q-11 -82 34 -128t138 -46zM603 1155l28 194l124 151h99l-124 -163h86l-26 -182
h-187z" />
    <glyph glyph-name="Hcircumflex" unicode="&#x124;" horiz-adv-x="1499" 
d="M102 0l204 1446h240l-84 -597h668l84 597h240l-203 -1446h-241l91 642h-668l-90 -642h-241zM575 1567l262 244h167l232 -244h-201l-121 135l-150 -135h-189z" />
    <glyph glyph-name="hcircumflex" unicode="&#x125;" horiz-adv-x="1152" 
d="M72 0l211 1486h238l-84 -592q44 58 120 103.5t196 45.5q95 0 168.5 -39.5t110.5 -111t23 -165.5l-103 -727h-240l97 688q11 77 -37 120.5t-128 43.5q-55 0 -106.5 -20t-86.5 -58.5t-42 -94.5l-97 -679h-240zM89 1567l262 244h167l232 -244h-201l-121 135l-150 -135h-189z
" />
    <glyph glyph-name="Hbar" unicode="&#x126;" horiz-adv-x="1591" 
d="M113 1104l21 143h1529l-21 -143h-1529zM159 0l204 1446h240l-84 -597h668l84 597h240l-203 -1446h-241l91 642h-668l-90 -642h-241z" />
    <glyph glyph-name="hbar" unicode="&#x127;" horiz-adv-x="1252" 
d="M134 1174l19 143h648l-19 -143h-648zM172 0l211 1486h238l-84 -592q44 58 120 103.5t196 45.5q95 0 168.5 -39.5t110.5 -111t23 -165.5l-103 -727h-240l97 688q11 77 -37 120.5t-128 43.5q-55 0 -106.5 -20t-86.5 -58.5t-42 -94.5l-97 -679h-240z" />
    <glyph glyph-name="Itilde" unicode="&#x128;" horiz-adv-x="598" 
d="M103 0l211 1446h240l-211 -1446h-240zM190 1620l-21 123q39 36 82.5 60.5t104.5 24.5q51 0 94.5 -14.5t84.5 -29t84 -14.5q46 0 85.5 20t72.5 43l13 -141q-31 -23 -80.5 -44.5t-112.5 -21.5q-52 0 -91.5 14t-77.5 27.5t-84 13.5q-48 0 -81.5 -16.5t-72.5 -44.5z" />
    <glyph glyph-name="itilde" unicode="&#x129;" horiz-adv-x="522" 
d="M65 0l152 1034h240l-152 -1034h-240zM94 1208l-21 123q39 36 82.5 60.5t104.5 24.5q51 0 94.5 -14.5t84.5 -29t84 -14.5q46 0 85.5 20t72.5 43l13 -141q-31 -23 -80.5 -44.5t-112.5 -21.5q-52 0 -91.5 14t-77.5 27.5t-84 13.5q-48 0 -81.5 -16.5t-72.5 -44.5z" />
    <glyph glyph-name="Imacron" unicode="&#x12a;" horiz-adv-x="598" 
d="M103 0l211 1446h240l-211 -1446h-240zM151 1631l23 161h635l-24 -161h-634z" />
    <glyph glyph-name="imacron" unicode="&#x12b;" horiz-adv-x="522" 
d="M65 0l152 1034h240l-152 -1034h-240zM54 1219l23 161h635l-24 -161h-634z" />
    <glyph glyph-name="Ibreve" unicode="&#x12c;" horiz-adv-x="598" 
d="M103 0l211 1446h240l-211 -1446h-240zM451 1568q-79 0 -139 29t-97 82.5t-46 125.5h153q11 -25 28 -49.5t46 -41.5t74 -17q65 0 109.5 34t73.5 74h153q-30 -68 -82.5 -121.5t-122 -84.5t-150.5 -31z" />
    <glyph glyph-name="ibreve" unicode="&#x12d;" horiz-adv-x="522" 
d="M65 0l152 1034h240l-152 -1034h-240zM355 1156q-79 0 -139 29t-97 82.5t-46 125.5h153q11 -25 28 -49.5t46 -41.5t74 -17q65 0 109.5 34t73.5 74h153q-30 -68 -82.5 -121.5t-122 -84.5t-150.5 -31z" />
    <glyph glyph-name="Iogonek" unicode="&#x12e;" horiz-adv-x="598" 
d="M103 0l211 1446h240l-211 -1446h-240zM133 -342q-96 0 -142.5 42t-35.5 119q8 57 53.5 104.5t162.5 85.5l170 -9q-106 -40 -151.5 -75t-52.5 -79q-4 -34 11.5 -51t55.5 -17q46 0 82 13t63 27l-17 -116q-28 -15 -82.5 -29.5t-116.5 -14.5z" />
    <glyph glyph-name="iogonek" unicode="&#x12f;" horiz-adv-x="514" 
d="M68 0l146 1034h231l-145 -1034h-232zM237 1216l32 230h237l-32 -230h-237zM92 -334q-96 0 -142.5 42t-35.5 119q8 57 53.5 104.5t162.5 85.5l170 -9q-106 -40 -151.5 -75t-52.5 -79q-4 -34 11.5 -51t55.5 -17q46 0 82 13t63 27l-17 -116q-28 -15 -82.5 -29.5
t-116.5 -14.5z" />
    <glyph glyph-name="Idotaccent" unicode="&#x130;" horiz-adv-x="598" 
d="M103 0l211 1446h240l-211 -1446h-240zM349 1647l31 211h231l-31 -211h-231z" />
    <glyph glyph-name="dotlessi" unicode="&#x131;" horiz-adv-x="522" 
d="M65 0l152 1034h240l-152 -1034h-240z" />
    <glyph glyph-name="Jcircumflex" unicode="&#x134;" horiz-adv-x="781" 
d="M228 -20q-69 0 -135 14.5t-93 23.5l41 226q28 -9 63.5 -21.5t84.5 -12.5q96 0 138 54t59 177l148 1005h238l-156 -1071q-19 -129 -59.5 -216.5t-118.5 -133t-210 -45.5zM335 1567l262 244h167l232 -244h-201l-121 135l-150 -135h-189z" />
    <glyph glyph-name="jcircumflex" unicode="&#x135;" horiz-adv-x="533" 
d="M-33 -332q-79 0 -100.5 10.5t-21.5 16.5l24 162l87 6q63 8 92 36.5t37 88.5l154 1046h239l-153 -1051q-23 -158 -107 -236.5t-251 -78.5zM40 1155l262 244h167l232 -244h-201l-121 135l-150 -135h-189z" />
    <glyph glyph-name="uni0136" unicode="&#x136;" horiz-adv-x="1365" 
d="M102 0l213 1446h248l-101 -701l654 701h277l-518 -560l354 -886h-264l-292 706l-258 -273l-63 -433h-250zM420 -413l104 138l-70 7l25 173h216l-21 -144l-165 -174h-89z" />
    <glyph glyph-name="uni0137" unicode="&#x137;" horiz-adv-x="1113" 
d="M65 0l217 1486h240l-134 -921l474 469h261l-419 -404l284 -630h-243l-213 479l-184 -176l-44 -303h-239zM302 -413l104 138l-70 7l25 173h216l-21 -144l-165 -174h-89z" />
    <glyph glyph-name="kgreenlandic" unicode="&#x138;" horiz-adv-x="1141" 
d="M65 0l153 1034h238l-70 -491l507 491h249l-386 -354l265 -680h-275l-178 502l-220 -199l-43 -303h-240z" />
    <glyph glyph-name="Lacute" unicode="&#x139;" horiz-adv-x="1126" 
d="M102 0l213 1446h242l-181 -1236h624l-32 -210h-866zM346 1567l238 291h260l-317 -291h-181z" />
    <glyph glyph-name="lacute" unicode="&#x13a;" horiz-adv-x="635" 
d="M352 -15q-97 0 -152 25t-77.5 67t-24.5 94.5t6 107.5l177 1207h236l-173 -1179q-10 -67 11 -104t80 -43l48 -2l-22 -153q-28 -8 -57 -14t-52 -6zM322 1648l238 291h260l-317 -291h-181z" />
    <glyph glyph-name="uni013B" unicode="&#x13b;" horiz-adv-x="1126" 
d="M102 0l213 1446h242l-181 -1236h624l-32 -210h-866zM344 -413l104 138l-70 7l25 173h216l-21 -144l-165 -174h-89z" />
    <glyph glyph-name="uni013C" unicode="&#x13c;" horiz-adv-x="624" 
d="M352 -15q-97 0 -152 25t-77.5 67t-24.5 94.5t6 107.5l177 1207h236l-173 -1179q-10 -67 11 -104t80 -43l48 -2l-22 -153q-28 -8 -57 -14t-52 -6zM4 -412l104 138l-70 7l25 173h216l-21 -144l-165 -174h-89z" />
    <glyph glyph-name="Lcaron" unicode="&#x13d;" horiz-adv-x="1126" 
d="M102 0l213 1446h242l-181 -1236h624l-32 -210h-866zM798 1032l104 193l-59 11l30 210h173l-32 -220l-108 -194h-108z" />
    <glyph glyph-name="lcaron" unicode="&#x13e;" horiz-adv-x="624" 
d="M352 -15q-97 0 -152 25t-77.5 67t-24.5 94.5t6 107.5l177 1207h236l-173 -1179q-10 -67 11 -104t80 -43l48 -2l-22 -153q-28 -8 -57 -14t-52 -6zM564 1072l104 193l-59 11l30 210h173l-32 -220l-108 -194h-108z" />
    <glyph glyph-name="Ldot" unicode="&#x13f;" horiz-adv-x="1169" 
d="M102 0l213 1446h242l-181 -1236h624l-32 -210h-866zM785 667l39 257h259l-39 -257h-259z" />
    <glyph glyph-name="ldot" unicode="&#x140;" horiz-adv-x="791" 
d="M352 -15q-97 0 -152 25t-77.5 67t-24.5 94.5t6 107.5l177 1207h236l-173 -1179q-10 -67 11 -104t80 -43l48 -2l-22 -153q-28 -8 -57 -14t-52 -6zM539 667l39 257h259l-39 -257h-259z" />
    <glyph glyph-name="Lslash" unicode="&#x141;" horiz-adv-x="1181" 
d="M66 583v205l734 191v-194zM157 0l213 1446h242l-181 -1236h624l-32 -210h-866z" />
    <glyph glyph-name="lslash" unicode="&#x142;" horiz-adv-x="793" 
d="M77 353v214l658 447v-203zM476 -15q-97 0 -152 25t-78 67t-24.5 94.5t6.5 107.5l177 1207h236l-173 -1179q-10 -67 10.5 -104t80.5 -43l48 -2l-22 -153q-28 -8 -57 -14t-52 -6z" />
    <glyph glyph-name="Nacute" unicode="&#x143;" horiz-adv-x="1506" 
d="M102 0l213 1446h234l524 -1033l149 1033h241l-213 -1446h-215l-538 1061l-155 -1061h-240zM803 1567l238 291h260l-317 -291h-181z" />
    <glyph glyph-name="nacute" unicode="&#x144;" horiz-adv-x="1144" 
d="M65 0l152 1034h233l-18 -138q34 40 78 74t102.5 55t137.5 21q93 0 166 -43t109.5 -124t18.5 -194l-100 -685h-240l97 657q14 94 -32.5 144.5t-124.5 50.5q-55 0 -107 -19.5t-88 -57.5t-44 -94l-101 -681h-239zM579 1155l238 291h260l-317 -291h-181z" />
    <glyph glyph-name="uni0145" unicode="&#x145;" horiz-adv-x="1506" 
d="M102 0l213 1446h234l524 -1033l149 1033h241l-213 -1446h-215l-538 1061l-155 -1061h-240zM472 -413l104 138l-70 7l25 173h216l-21 -144l-165 -174h-89z" />
    <glyph glyph-name="uni0146" unicode="&#x146;" horiz-adv-x="1144" 
d="M65 0l152 1034h233l-18 -138q34 40 78 74t102.5 55t137.5 21q93 0 166 -43t109.5 -124t18.5 -194l-100 -685h-240l97 657q14 94 -32.5 144.5t-124.5 50.5q-55 0 -107 -19.5t-88 -57.5t-44 -94l-101 -681h-239zM324 -413l104 138l-70 7l25 173h216l-21 -144l-165 -174h-89
z" />
    <glyph glyph-name="Ncaron" unicode="&#x147;" horiz-adv-x="1506" 
d="M102 0l213 1446h234l524 -1033l149 1033h241l-213 -1446h-215l-538 1061l-155 -1061h-240zM818 1567l-214 244h190l122 -143l151 143h199l-278 -244h-170z" />
    <glyph glyph-name="ncaron" unicode="&#x148;" horiz-adv-x="1144" 
d="M65 0l152 1034h233l-18 -138q34 40 78 74t102.5 55t137.5 21q93 0 166 -43t109.5 -124t18.5 -194l-100 -685h-240l97 657q14 94 -32.5 144.5t-124.5 50.5q-55 0 -107 -19.5t-88 -57.5t-44 -94l-101 -681h-239zM594 1155l-214 244h190l122 -143l151 143h199l-278 -244
h-170z" />
    <glyph glyph-name="Eng" unicode="&#x14a;" horiz-adv-x="1506" 
d="M848 -480q-69 0 -134.5 14.5t-92.5 23.5l40 223q26 -9 64.5 -20t84.5 -11q87 0 132 45t60 151l14 90l-519 1025l-155 -1061h-240l213 1446h234l524 -1033l149 1033h241l-226 -1530q-20 -138 -63.5 -225.5t-122 -129t-203.5 -41.5z" />
    <glyph glyph-name="eng" unicode="&#x14b;" horiz-adv-x="1115" 
d="M570 -332q-75 0 -92 8.5t-17 13.5l24 166l71 4q56 6 85 33.5t38 90.5l100 719q12 77 -18.5 123.5t-114.5 46.5q-62 0 -125 -36.5t-126 -102.5l-103 -734h-227l150 1034h216l-22 -159q68 60 127.5 99.5t115.5 59.5t115 20q132 0 197.5 -83t45.5 -220l-107 -759
q-14 -101 -58.5 -173.5t-114.5 -111.5t-160 -39z" />
    <glyph glyph-name="Omacron" unicode="&#x14c;" horiz-adv-x="1454" 
d="M649 -20q-193 0 -320.5 88t-179 253t-17.5 397q35 235 136.5 402t255 256.5t343.5 89.5t316 -89t178 -256t18 -401q-34 -232 -134 -398t-252.5 -254t-343.5 -88zM680 184q112 0 200.5 55.5t149 173t86.5 304.5q29 190 2.5 310.5t-98.5 177.5t-184 57
q-167 0 -283.5 -130.5t-158.5 -414.5q-27 -187 0 -304.5t100.5 -173t185.5 -55.5zM570 1631l23 161h635l-24 -161h-634z" />
    <glyph glyph-name="omacron" unicode="&#x14d;" horiz-adv-x="1108" 
d="M478 -20q-142 0 -239 63.5t-138.5 182.5t-17.5 286q23 162 97 284t189.5 190t262.5 68q143 0 239 -65t136.5 -186t16.5 -291q-23 -157 -95 -276.5t-186 -187.5t-265 -68zM508 165q79 0 137 46t94.5 126t50.5 182q13 95 1 175t-56 128.5t-130 48.5q-82 0 -140.5 -44.5
t-95 -124t-50.5 -183.5q-12 -94 -0.5 -174.5t56.5 -130t133 -49.5zM329 1219l23 161h635l-24 -161h-634z" />
    <glyph glyph-name="Obreve" unicode="&#x14e;" horiz-adv-x="1454" 
d="M649 -20q-193 0 -320.5 88t-179 253t-17.5 397q35 235 136.5 402t255 256.5t343.5 89.5t316 -89t178 -256t18 -401q-34 -232 -134 -398t-252.5 -254t-343.5 -88zM680 184q112 0 200.5 55.5t149 173t86.5 304.5q29 190 2.5 310.5t-98.5 177.5t-184 57
q-167 0 -283.5 -130.5t-158.5 -414.5q-27 -187 0 -304.5t100.5 -173t185.5 -55.5zM870 1568q-79 0 -139 29t-97 82.5t-46 125.5h153q11 -25 28 -49.5t46 -41.5t74 -17q65 0 109.5 34t73.5 74h153q-30 -68 -82.5 -121.5t-122 -84.5t-150.5 -31z" />
    <glyph glyph-name="obreve" unicode="&#x14f;" horiz-adv-x="1108" 
d="M478 -20q-142 0 -239 63.5t-138.5 182.5t-17.5 286q23 162 97 284t189.5 190t262.5 68q143 0 239 -65t136.5 -186t16.5 -291q-23 -157 -95 -276.5t-186 -187.5t-265 -68zM508 165q79 0 137 46t94.5 126t50.5 182q13 95 1 175t-56 128.5t-130 48.5q-82 0 -140.5 -44.5
t-95 -124t-50.5 -183.5q-12 -94 -0.5 -174.5t56.5 -130t133 -49.5zM629 1156q-79 0 -139 29t-97 82.5t-46 125.5h153q11 -25 28 -49.5t46 -41.5t74 -17q65 0 109.5 34t73.5 74h153q-30 -68 -82.5 -121.5t-122 -84.5t-150.5 -31z" />
    <glyph glyph-name="Ohungarumlaut" unicode="&#x150;" horiz-adv-x="1454" 
d="M649 -20q-193 0 -320.5 88t-179 253t-17.5 397q35 235 136.5 402t255 256.5t343.5 89.5t316 -89t178 -256t18 -401q-34 -232 -134 -398t-252.5 -254t-343.5 -88zM680 184q112 0 200.5 55.5t149 173t86.5 304.5q29 190 2.5 310.5t-98.5 177.5t-184 57
q-167 0 -283.5 -130.5t-158.5 -414.5q-27 -187 0 -304.5t100.5 -173t185.5 -55.5zM936 1567l195 291h231l-253 -291h-173zM623 1567l153 291h226l-206 -291h-173z" />
    <glyph glyph-name="ohungarumlaut" unicode="&#x151;" horiz-adv-x="1049" 
d="M478 -20q-142 0 -239 63.5t-138.5 182.5t-17.5 286q23 162 97 284t189.5 190t262.5 68q143 0 239 -65t136.5 -186t16.5 -291q-23 -157 -95 -276.5t-186 -187.5t-265 -68zM508 165q79 0 137 46t94.5 126t50.5 182q13 95 1 175t-56 128.5t-130 48.5q-82 0 -140.5 -44.5
t-95 -124t-50.5 -183.5q-12 -94 -0.5 -174.5t56.5 -130t133 -49.5zM685 1155l195 291h231l-253 -291h-173zM372 1155l153 291h226l-206 -291h-173z" />
    <glyph glyph-name="OE" unicode="&#x152;" horiz-adv-x="2168" 
d="M2173 1446l-32 -209h-680l-59 -405h599l-29 -206h-601l-60 -414l695 -1l-32 -211h-935l25 175q-79 -95 -184 -145t-231 -50q-193 0 -320.5 88t-179 253t-17.5 397q35 235 136.5 402t255 256.5t343.5 89.5q126 0 217.5 -50t142.5 -148l25 178h921zM680 184
q112 0 200.5 55.5t149 173t86.5 304.5q29 190 2.5 310.5t-98.5 177.5t-184 57q-167 0 -283.5 -130.5t-158.5 -414.5q-27 -187 0 -304.5t100.5 -173t185.5 -55.5z" />
    <glyph glyph-name="oe" unicode="&#x153;" horiz-adv-x="1815" 
d="M1348 1054q148 0 239.5 -65t126 -181.5t11.5 -272.5l-11 -74h-686q-13 -88 4.5 -156t66.5 -106.5t128 -38.5q81 0 146.5 38.5t97.5 117.5h219q-33 -108 -109.5 -183t-175.5 -114t-201 -39q-120 0 -208 49.5t-134 143.5q-66 -91 -163 -142t-221 -51q-142 0 -239 63.5
t-138.5 182.5t-17.5 286q23 162 97 284t189.5 190t262.5 68q119 0 204 -50t127 -149q68 94 166 146.5t219 52.5zM508 165q79 0 137 46t94.5 126t50.5 182q13 95 1 175t-56 128.5t-130 48.5q-82 0 -140.5 -44.5t-95 -124t-50.5 -183.5q-12 -94 -0.5 -174.5t56.5 -130
t133 -49.5zM1049 612h462q11 75 -5.5 135.5t-62 96t-122.5 35.5q-76 0 -133.5 -39t-93 -100.5t-45.5 -127.5z" />
    <glyph glyph-name="Racute" unicode="&#x154;" horiz-adv-x="1338" 
d="M102 0l212 1446h566q159 0 255.5 -51.5t132.5 -145t18 -218.5q-17 -116 -64.5 -194.5t-113 -128t-135.5 -80.5l172 -628h-249l-152 587h-317l-86 -587h-239zM456 780h275q86 0 152 28.5t107 83t52 130.5q16 112 -43 173t-171 61h-303zM707 1567l238 291h260l-317 -291
h-181z" />
    <glyph glyph-name="racute" unicode="&#x155;" horiz-adv-x="781" 
d="M65 0l146 1034h230l-31 -224q35 77 87 131.5t117.5 83.5t137.5 29q18 0 33 -2t23 -7l-33 -233q-10 5 -26 7t-28 2q-97 8 -167 -15.5t-111 -75.5t-53 -129l-84 -601h-241zM434 1155l238 291h260l-317 -291h-181z" />
    <glyph glyph-name="uni0156" unicode="&#x156;" horiz-adv-x="1338" 
d="M102 0l212 1446h566q159 0 255.5 -51.5t132.5 -145t18 -218.5q-17 -116 -64.5 -194.5t-113 -128t-135.5 -80.5l172 -628h-249l-152 587h-317l-86 -587h-239zM456 780h275q86 0 152 28.5t107 83t52 130.5q16 112 -43 173t-171 61h-303zM415 -413l104 138l-70 7l25 173h216
l-21 -144l-165 -174h-89z" />
    <glyph glyph-name="uni0157" unicode="&#x157;" horiz-adv-x="782" 
d="M65 0l146 1034h230l-31 -224q35 77 87 131.5t117.5 83.5t137.5 29q18 0 33 -2t23 -7l-33 -233q-10 5 -26 7t-28 2q-97 8 -167 -15.5t-111 -75.5t-53 -129l-84 -601h-241zM-5 -413l104 138l-70 7l25 173h216l-21 -144l-165 -174h-89z" />
    <glyph glyph-name="Rcaron" unicode="&#x158;" horiz-adv-x="1338" 
d="M102 0l212 1446h566q159 0 255.5 -51.5t132.5 -145t18 -218.5q-17 -116 -64.5 -194.5t-113 -128t-135.5 -80.5l172 -628h-249l-152 587h-317l-86 -587h-239zM456 780h275q86 0 152 28.5t107 83t52 130.5q16 112 -43 173t-171 61h-303zM722 1567l-214 244h190l122 -143
l151 143h199l-278 -244h-170z" />
    <glyph glyph-name="rcaron" unicode="&#x159;" horiz-adv-x="782" 
d="M65 0l146 1034h230l-31 -224q35 77 87 131.5t117.5 83.5t137.5 29q18 0 33 -2t23 -7l-33 -233q-10 5 -26 7t-28 2q-97 8 -167 -15.5t-111 -75.5t-53 -129l-84 -601h-241zM412 1155l-214 244h190l122 -143l151 143h199l-278 -244h-170z" />
    <glyph glyph-name="Sacute" unicode="&#x15a;" horiz-adv-x="1347" 
d="M607 -20q-102 0 -196 25.5t-166.5 77.5t-113.5 131t-38 186h252q5 -73 43.5 -123t102 -76t143.5 -26q86 0 159 24t120.5 70t57.5 113q8 59 -16.5 100t-74.5 67.5t-120 42.5l-248 58q-154 33 -232 128t-57 253q18 131 101 228.5t210 151t276 53.5q164 0 274.5 -62
t163.5 -160.5t45 -207.5h-247q3 86 -30 137t-93.5 73t-138.5 22q-76 0 -141.5 -24.5t-108 -71.5t-51.5 -112q-9 -70 30 -113.5t157 -73.5l242 -58q116 -24 182 -72t95 -109.5t32.5 -125.5t-4.5 -122q-15 -113 -96 -205t-213 -145.5t-301 -53.5zM724 1567l238 291h260
l-317 -291h-181z" />
    <glyph glyph-name="sacute" unicode="&#x15b;" horiz-adv-x="1028" 
d="M445 -20q-104 0 -192.5 34.5t-142 108.5t-54.5 191h212q4 -57 33.5 -93t73.5 -52.5t93 -16.5q89 0 148 32t68 99q7 49 -19.5 78t-92.5 44l-182 45q-123 29 -190.5 96t-51.5 189q12 92 68 164t151.5 113.5t228.5 41.5q176 0 271 -80.5t76 -229.5h-204q-1 67 -45.5 104.5
t-123.5 37.5q-82 0 -139 -33t-66 -101q-7 -47 29.5 -74t115.5 -46l171 -45q74 -20 119.5 -54t67.5 -74.5t27 -83t0 -78.5q-14 -100 -73.5 -170.5t-156.5 -108.5t-220 -38zM536 1155l238 291h260l-317 -291h-181z" />
    <glyph glyph-name="Scircumflex" unicode="&#x15c;" horiz-adv-x="1347" 
d="M607 -20q-102 0 -196 25.5t-166.5 77.5t-113.5 131t-38 186h252q5 -73 43.5 -123t102 -76t143.5 -26q86 0 159 24t120.5 70t57.5 113q8 59 -16.5 100t-74.5 67.5t-120 42.5l-248 58q-154 33 -232 128t-57 253q18 131 101 228.5t210 151t276 53.5q164 0 274.5 -62
t163.5 -160.5t45 -207.5h-247q3 86 -30 137t-93.5 73t-138.5 22q-76 0 -141.5 -24.5t-108 -71.5t-51.5 -112q-9 -70 30 -113.5t157 -73.5l242 -58q116 -24 182 -72t95 -109.5t32.5 -125.5t-4.5 -122q-15 -113 -96 -205t-213 -145.5t-301 -53.5zM496 1567l262 244h167
l232 -244h-201l-121 135l-150 -135h-189z" />
    <glyph glyph-name="scircumflex" unicode="&#x15d;" horiz-adv-x="1010" 
d="M445 -20q-104 0 -192.5 34.5t-142 108.5t-54.5 191h212q4 -57 33.5 -93t73.5 -52.5t93 -16.5q89 0 148 32t68 99q7 49 -19.5 78t-92.5 44l-182 45q-123 29 -190.5 96t-51.5 189q12 92 68 164t151.5 113.5t228.5 41.5q176 0 271 -80.5t76 -229.5h-204q-1 67 -45.5 104.5
t-123.5 37.5q-82 0 -139 -33t-66 -101q-7 -47 29.5 -74t115.5 -46l171 -45q74 -20 119.5 -54t67.5 -74.5t27 -83t0 -78.5q-14 -100 -73.5 -170.5t-156.5 -108.5t-220 -38zM281 1155l262 244h167l232 -244h-201l-121 135l-150 -135h-189z" />
    <glyph glyph-name="Scedilla" unicode="&#x15e;" horiz-adv-x="1347" 
d="M514 -419q-57 0 -107 12t-91 40l49 89q25 -19 58 -33.5t75 -14.5q49 0 76.5 17.5t32.5 49.5q6 41 -27 62t-119 22q-12 0 -15.5 3.5t3.5 13.5l95 168h112l-61 -119q69 -2 106 -25.5t49.5 -57.5t7.5 -68q-8 -51 -43.5 -86.5t-88.5 -54t-112 -18.5zM607 -20
q-102 0 -196 25.5t-166.5 77.5t-113.5 131t-38 186h252q5 -73 43.5 -123t102 -76t143.5 -26q86 0 159 24t120.5 70t57.5 113q8 59 -16.5 100t-74.5 67.5t-120 42.5l-248 58q-154 33 -232 128t-57 253q18 131 101 228.5t210 151t276 53.5q164 0 274.5 -62t163.5 -160.5
t45 -207.5h-247q3 86 -30 137t-93.5 73t-138.5 22q-76 0 -141.5 -24.5t-108 -71.5t-51.5 -112q-9 -70 30 -113.5t157 -73.5l242 -58q116 -24 182 -72t95 -109.5t32.5 -125.5t-4.5 -122q-15 -113 -96 -205t-213 -145.5t-301 -53.5z" />
    <glyph glyph-name="scedilla" unicode="&#x15f;" horiz-adv-x="1010" 
d="M368 -419q-57 0 -107 12t-91 40l48 89q25 -19 58.5 -33.5t75.5 -14.5q49 0 76.5 17.5t32.5 49.5q6 41 -27.5 62t-119.5 22q-11 0 -14.5 3.5t3.5 13.5l94 168h112l-61 -119q69 -2 106 -25.5t49.5 -57.5t8.5 -68q-8 -51 -44 -86.5t-88.5 -54t-111.5 -18.5zM445 -20
q-104 0 -192.5 34.5t-142 108.5t-54.5 191h212q4 -57 33.5 -93t73.5 -52.5t93 -16.5q89 0 148 32t68 99q7 49 -19.5 78t-92.5 44l-182 45q-123 29 -190.5 96t-51.5 189q12 92 68 164t151.5 113.5t228.5 41.5q176 0 271 -80.5t76 -229.5h-204q-1 67 -45.5 104.5t-123.5 37.5
q-82 0 -139 -33t-66 -101q-7 -47 29.5 -74t115.5 -46l171 -45q74 -20 119.5 -54t67.5 -74.5t27 -83t0 -78.5q-14 -100 -73.5 -170.5t-156.5 -108.5t-220 -38z" />
    <glyph glyph-name="Scaron" unicode="&#x160;" horiz-adv-x="1347" 
d="M607 -20q-102 0 -196 25.5t-166.5 77.5t-113.5 131t-38 186h252q5 -73 43.5 -123t102 -76t143.5 -26q86 0 159 24t120.5 70t57.5 113q8 59 -16.5 100t-74.5 67.5t-120 42.5l-248 58q-154 33 -232 128t-57 253q18 131 101 228.5t210 151t276 53.5q164 0 274.5 -62
t163.5 -160.5t45 -207.5h-247q3 86 -30 137t-93.5 73t-138.5 22q-76 0 -141.5 -24.5t-108 -71.5t-51.5 -112q-9 -70 30 -113.5t157 -73.5l242 -58q116 -24 182 -72t95 -109.5t32.5 -125.5t-4.5 -122q-15 -113 -96 -205t-213 -145.5t-301 -53.5zM739 1567l-214 244h190
l122 -143l151 143h199l-278 -244h-170z" />
    <glyph glyph-name="scaron" unicode="&#x161;" horiz-adv-x="999" 
d="M445 -20q-104 0 -192.5 34.5t-142 108.5t-54.5 191h212q4 -57 33.5 -93t73.5 -52.5t93 -16.5q89 0 148 32t68 99q7 49 -19.5 78t-92.5 44l-182 45q-123 29 -190.5 96t-51.5 189q12 92 68 164t151.5 113.5t228.5 41.5q176 0 271 -80.5t76 -229.5h-204q-1 67 -45.5 104.5
t-123.5 37.5q-82 0 -139 -33t-66 -101q-7 -47 29.5 -74t115.5 -46l171 -45q74 -20 119.5 -54t67.5 -74.5t27 -83t0 -78.5q-14 -100 -73.5 -170.5t-156.5 -108.5t-220 -38zM558 1155l-214 244h190l122 -143l151 143h199l-278 -244h-170z" />
    <glyph glyph-name="uni0162" unicode="&#x162;" horiz-adv-x="1174" 
d="M448 -417q-57 0 -107.5 12t-90.5 40l48 89q25 -19 58.5 -33.5t75.5 -14.5q49 0 76.5 17.5t32.5 49.5q6 41 -27.5 62t-119.5 22q-11 0 -14.5 3.5t3.5 13.5l94 168h112l-61 -119q69 -2 106 -25.5t49.5 -57.5t8.5 -69q-8 -50 -44 -85.5t-88.5 -54t-111.5 -18.5zM394 0
l178 1227h-429l32 219h1085l-32 -219h-416l-179 -1227h-239z" />
    <glyph glyph-name="uni0163" unicode="&#x163;" horiz-adv-x="790" 
d="M312 -410q-57 0 -107 12t-91 41l49 89q25 -19 58 -34t75 -15q49 0 76.5 18t32.5 49q6 42 -27.5 62.5t-119.5 22.5q-11 0 -14.5 3t3.5 13l95 169h111l-60 -119q68 -2 105.5 -25.5t50 -58t7.5 -68.5q-8 -51 -43.5 -86t-88.5 -54t-112 -19zM461 -8q-119 0 -180.5 32.5
t-78.5 92.5t-5 143l88 602h-162l27 172h167l85 307h192l-44 -306h223l-26 -173h-223l-84 -588q-10 -69 12.5 -88t75.5 -19h122l-23 -154q-20 -8 -60 -14.5t-106 -6.5z" />
    <glyph glyph-name="Tcaron" unicode="&#x164;" horiz-adv-x="1174" 
d="M394 0l178 1227h-429l32 219h1085l-32 -219h-416l-179 -1227h-239zM667 1567l-214 244h190l122 -143l151 143h199l-278 -244h-170z" />
    <glyph glyph-name="tcaron" unicode="&#x165;" horiz-adv-x="828" 
d="M461 -8q-119 0 -180.5 32.5t-78.5 92.5t-5 143l88 602h-162l27 172h167l85 307h192l-44 -306h223l-26 -173h-223l-84 -588q-10 -69 12.5 -88t75.5 -19h122l-23 -154q-20 -8 -60 -14.5t-106 -6.5zM640 1125l104 193l-59 11l30 210h173l-32 -220l-108 -194h-108z" />
    <glyph glyph-name="Tbar" unicode="&#x166;" horiz-adv-x="1174" 
d="M201 620l26 184h788l-26 -184h-788zM394 0l178 1227h-429l32 219h1085l-32 -219h-416l-179 -1227h-239z" />
    <glyph glyph-name="tbar" unicode="&#x167;" horiz-adv-x="794" 
d="M92 495l21 143h593l-21 -143h-593zM472 -8q-120 0 -181 32.5t-78 92.5t-6 143l88 602h-161l26 172h167l86 307h192l-44 -306h222l-26 -173h-222l-85 -588q-9 -69 13 -88t75 -19h123l-23 -154q-20 -8 -60 -14.5t-106 -6.5z" />
    <glyph glyph-name="Utilde" unicode="&#x168;" horiz-adv-x="1391" 
d="M632 -20q-194 0 -302 66.5t-143 192t-9 303.5l132 904h245l-135 -929q-17 -112 8 -184.5t85 -108t150 -35.5q134 0 226 79.5t116 248.5l135 929h241l-133 -918q-25 -172 -97 -294.5t-199.5 -188t-319.5 -65.5zM601 1620l-21 123q39 36 82.5 60.5t104.5 24.5
q51 0 94.5 -14.5t84.5 -29t84 -14.5q46 0 85.5 20t72.5 43l13 -141q-31 -23 -80.5 -44.5t-112.5 -21.5q-52 0 -91.5 14t-77.5 27.5t-84 13.5q-48 0 -81.5 -16.5t-72.5 -44.5z" />
    <glyph glyph-name="utilde" unicode="&#x169;" horiz-adv-x="1151" 
d="M429 -20q-72 0 -137 22.5t-113 66t-71 107.5t-11 149l99 709h241l-96 -681q-12 -84 32 -138t145 -54q94 0 157 51.5t77 148.5l95 673h238l-145 -1034h-184l1 202q-29 -85 -82.5 -133.5t-117.5 -68.5t-128 -20zM396 1208l-21 123q39 36 82.5 60.5t104.5 24.5
q51 0 94.5 -14.5t84.5 -29t84 -14.5q46 0 85.5 20t72.5 43l13 -141q-31 -23 -80.5 -44.5t-112.5 -21.5q-52 0 -91.5 14t-77.5 27.5t-84 13.5q-48 0 -81.5 -16.5t-72.5 -44.5z" />
    <glyph glyph-name="Umacron" unicode="&#x16a;" horiz-adv-x="1391" 
d="M632 -20q-194 0 -302 66.5t-143 192t-9 303.5l132 904h245l-135 -929q-17 -112 8 -184.5t85 -108t150 -35.5q134 0 226 79.5t116 248.5l135 929h241l-133 -918q-25 -172 -97 -294.5t-199.5 -188t-319.5 -65.5zM562 1631l23 161h635l-24 -161h-634z" />
    <glyph glyph-name="umacron" unicode="&#x16b;" horiz-adv-x="1151" 
d="M429 -20q-72 0 -137 22.5t-113 66t-71 107.5t-11 149l99 709h241l-96 -681q-12 -84 32 -138t145 -54q94 0 157 51.5t77 148.5l95 673h238l-145 -1034h-184l1 202q-29 -85 -82.5 -133.5t-117.5 -68.5t-128 -20zM356 1219l23 161h635l-24 -161h-634z" />
    <glyph glyph-name="Ubreve" unicode="&#x16c;" horiz-adv-x="1391" 
d="M632 -20q-194 0 -302 66.5t-143 192t-9 303.5l132 904h245l-135 -929q-17 -112 8 -184.5t85 -108t150 -35.5q134 0 226 79.5t116 248.5l135 929h241l-133 -918q-25 -172 -97 -294.5t-199.5 -188t-319.5 -65.5zM862 1568q-79 0 -139 29t-97 82.5t-46 125.5h153
q11 -25 28 -49.5t46 -41.5t74 -17q65 0 109.5 34t73.5 74h153q-30 -68 -82.5 -121.5t-122 -84.5t-150.5 -31z" />
    <glyph glyph-name="ubreve" unicode="&#x16d;" horiz-adv-x="1151" 
d="M429 -20q-72 0 -137 22.5t-113 66t-71 107.5t-11 149l99 709h241l-96 -681q-12 -84 32 -138t145 -54q94 0 157 51.5t77 148.5l95 673h238l-145 -1034h-184l1 202q-29 -85 -82.5 -133.5t-117.5 -68.5t-128 -20zM657 1156q-79 0 -139 29t-97 82.5t-46 125.5h153
q11 -25 28 -49.5t46 -41.5t74 -17q65 0 109.5 34t73.5 74h153q-30 -68 -82.5 -121.5t-122 -84.5t-150.5 -31z" />
    <glyph glyph-name="Uring" unicode="&#x16e;" horiz-adv-x="1391" 
d="M632 -20q-194 0 -302 66.5t-143 192t-9 303.5l132 904h245l-135 -929q-17 -112 8 -184.5t85 -108t150 -35.5q134 0 226 79.5t116 248.5l135 929h241l-133 -918q-25 -172 -97 -294.5t-199.5 -188t-319.5 -65.5zM863 1556q-85 0 -135.5 62.5t-36.5 153.5q8 56 42.5 102.5
t85 74.5t106.5 28q86 0 136.5 -61t37.5 -148q-9 -60 -43.5 -108t-85 -76t-107.5 -28zM877 1661q41 0 74 32t40 74q6 44 -18 73t-66 29q-39 0 -73.5 -29t-41.5 -73q-6 -42 19.5 -74t65.5 -32z" />
    <glyph glyph-name="uring" unicode="&#x16f;" horiz-adv-x="1151" 
d="M429 -20q-72 0 -137 22.5t-113 66t-71 107.5t-11 149l99 709h241l-96 -681q-12 -84 32 -138t145 -54q94 0 157 51.5t77 148.5l95 673h238l-145 -1034h-184l1 202q-29 -85 -82.5 -133.5t-117.5 -68.5t-128 -20zM657 1144q-85 0 -135.5 62.5t-36.5 153.5q8 56 42.5 102.5
t85 74.5t106.5 28q86 0 136.5 -61t37.5 -148q-9 -60 -43.5 -108t-85 -76t-107.5 -28zM671 1249q41 0 74 32t40 74q6 44 -18 73t-66 29q-39 0 -73.5 -29t-41.5 -73q-6 -42 19.5 -74t65.5 -32z" />
    <glyph glyph-name="Uhungarumlaut" unicode="&#x170;" horiz-adv-x="1365" 
d="M632 -20q-194 0 -302 66.5t-143 192t-9 303.5l132 904h245l-135 -929q-17 -112 8 -184.5t85 -108t150 -35.5q134 0 226 79.5t116 248.5l135 929h241l-133 -918q-25 -172 -97 -294.5t-199.5 -188t-319.5 -65.5zM925 1567l195 291h231l-253 -291h-173zM612 1567l153 291
h226l-206 -291h-173z" />
    <glyph glyph-name="uhungarumlaut" unicode="&#x171;" horiz-adv-x="1085" 
d="M429 -20q-72 0 -137 22.5t-113 66t-71 107.5t-11 149l99 709h241l-96 -681q-12 -84 32 -138t145 -54q94 0 157 51.5t77 148.5l95 673h238l-145 -1034h-184l1 202q-29 -85 -82.5 -133.5t-117.5 -68.5t-128 -20zM733 1155l195 291h231l-253 -291h-173zM420 1155l153 291
h226l-206 -291h-173z" />
    <glyph glyph-name="Uogonek" unicode="&#x172;" horiz-adv-x="1391" 
d="M580 -348q-96 0 -142.5 42.5t-35.5 119.5q8 57 53.5 104t162.5 85l170 -8q-107 -40 -152 -75t-52 -79q-4 -34 11.5 -51.5t55.5 -17.5q46 0 82 13.5t63 27.5l-18 -116q-27 -16 -81.5 -30.5t-116.5 -14.5zM632 -20q-194 0 -302 66.5t-143 192t-9 303.5l132 904h245
l-135 -929q-17 -112 8 -184.5t85 -108t150 -35.5q134 0 226 79.5t116 248.5l135 929h241l-133 -918q-25 -172 -97 -294.5t-199.5 -188t-319.5 -65.5z" />
    <glyph glyph-name="uogonek" unicode="&#x173;" horiz-adv-x="1151" 
d="M429 -20q-72 0 -137 22.5t-113 66t-71 107.5t-11 149l99 709h241l-96 -681q-12 -84 32 -138t145 -54q94 0 157 51.5t77 148.5l95 673h238l-145 -1034h-184l1 202q-29 -85 -82.5 -133.5t-117.5 -68.5t-128 -20zM729 -335q-96 0 -142.5 42t-35.5 119q8 57 53.5 104.5
t162.5 85.5l170 -9q-106 -40 -151.5 -75t-52.5 -79q-4 -34 11.5 -51t55.5 -17q46 0 82 13t63 27l-17 -116q-28 -15 -82.5 -29.5t-116.5 -14.5z" />
    <glyph glyph-name="Wcircumflex" unicode="&#x174;" horiz-adv-x="1854" 
d="M368 0l-194 1446h237l126 -1044l431 1044h176l132 -1044l430 1044h235l-620 -1446h-199l-129 1025l-430 -1025h-195zM744 1567l262 244h167l232 -244h-201l-121 135l-150 -135h-189z" />
    <glyph glyph-name="wcircumflex" unicode="&#x175;" horiz-adv-x="1511" 
d="M277 0l-164 1034h215l101 -711h10l303 711h174l100 -710h11l301 710h217l-468 -1034h-202l-102 689l-297 -689h-199zM523 1155l262 244h167l232 -244h-201l-121 135l-150 -135h-189z" />
    <glyph glyph-name="Ycircumflex" unicode="&#x176;" horiz-adv-x="1237" 
d="M419 0l88 612l-354 834h259l248 -622l424 622h263l-600 -835l-90 -611h-238zM426 1569l262 244h167l232 -244h-201l-121 135l-150 -135h-189z" />
    <glyph glyph-name="ycircumflex" unicode="&#x177;" horiz-adv-x="1064" 
d="M139 -330q-95 0 -131.5 15.5l-36.5 15.5l23 156l100 -3q81 -5 125 13.5t64.5 45t30.5 46.5l36 76l-241 999h239l153 -731l366 731h234l-563 -1072q-65 -117 -128.5 -180.5t-130 -87.5t-140.5 -24zM287 1155l262 244h167l232 -244h-201l-121 135l-150 -135h-189z" />
    <glyph glyph-name="Ydieresis" unicode="&#x178;" horiz-adv-x="1237" 
d="M419 0l88 612l-354 834h259l248 -622l424 622h263l-600 -835l-90 -611h-238zM847 1649l31 211h231l-31 -211h-231zM453 1649l31 211h232l-31 -211h-232z" />
    <glyph glyph-name="Zacute" unicode="&#x179;" horiz-adv-x="1280" 
d="M44 0l19 124l888 1115h-685l32 207h1024l-17 -118l-899 -1119h729l-31 -209h-1060zM735 1567l238 291h260l-317 -291h-181z" />
    <glyph glyph-name="zacute" unicode="&#x17a;" horiz-adv-x="1018" 
d="M-2 0l18 141l622 720h-485l25 173h776l-17 -141l-622 -720h522l-25 -173h-814zM548 1155l238 291h260l-317 -291h-181z" />
    <glyph glyph-name="Zdotaccent" unicode="&#x17b;" horiz-adv-x="1280" 
d="M44 0l19 124l888 1115h-685l32 207h1024l-17 -118l-899 -1119h729l-31 -209h-1060zM733 1647l31 211h231l-31 -211h-231z" />
    <glyph glyph-name="zdotaccent" unicode="&#x17c;" horiz-adv-x="955" 
d="M-2 0l18 141l622 720h-485l25 173h776l-17 -141l-622 -720h522l-25 -173h-814zM484 1235l31 211h231l-31 -211h-231z" />
    <glyph glyph-name="Zcaron" unicode="&#x17d;" horiz-adv-x="1280" 
d="M44 0l19 124l888 1115h-685l32 207h1024l-17 -118l-899 -1119h729l-31 -209h-1060zM750 1567l-214 244h190l122 -143l151 143h199l-278 -244h-170z" />
    <glyph glyph-name="zcaron" unicode="&#x17e;" horiz-adv-x="990" 
d="M-2 0l18 141l622 720h-485l25 173h776l-17 -141l-622 -720h522l-25 -173h-814zM570 1155l-214 244h190l122 -143l151 143h199l-278 -244h-170z" />
    <glyph glyph-name="uni018F" unicode="&#x18f;" horiz-adv-x="1458" 
d="M653 -20q-185 0 -313.5 85.5t-182 264.5t-13.5 458h963q30 213 -43 330.5t-239 117.5q-83 0 -151.5 -26t-119 -69t-80.5 -93t-37 -97h-272q12 85 68 175.5t148.5 167t214.5 124.5t266 48q195 0 323.5 -86.5t180.5 -250.5t19 -397q-35 -252 -138 -419t-255.5 -250
t-338.5 -83zM684 197q111 0 193 52.5t133 144.5t68 210l-667 1q-16 -119 8.5 -211.5t91 -144.5t173.5 -52z" />
    <glyph glyph-name="florin" unicode="&#x192;" horiz-adv-x="953" 
d="M-212 -334l49 166l113 1q61 1 94.5 32t59.5 114l276 883h-160l55 172h161l47 154q41 124 130 191t211 67h211l-52 -166h-132q-45 0 -86 -36.5t-59 -93.5l-37 -116h229l-57 -172h-221l-292 -931q-39 -124 -127.5 -194.5t-214.5 -70.5h-198z" />
    <glyph glyph-name="Ohorn" unicode="&#x1a0;" horiz-adv-x="1585" 
d="M649 -20q-193 0 -320.5 88t-179 253t-17.5 397q35 235 136.5 402t255 256.5t343.5 89.5q139 0 244.5 -48.5t172.5 -139.5q54 -1 90 12t60.5 56.5t43.5 135.5h165q-17 -111 -51 -184.5t-91.5 -111t-147.5 -41.5q30 -85 37 -191.5t-11 -233.5q-34 -232 -134 -398
t-252.5 -254t-343.5 -88zM680 184q112 0 200.5 55.5t149 173t86.5 304.5q29 190 2.5 310.5t-98.5 177.5t-184 57q-167 0 -283.5 -130.5t-158.5 -414.5q-27 -187 0 -304.5t100.5 -173t185.5 -55.5z" />
    <glyph glyph-name="ohorn" unicode="&#x1a1;" horiz-adv-x="1224" 
d="M478 -20q-142 0 -239 63.5t-138.5 182.5t-17.5 286q23 162 97 284t189.5 190t262.5 68q107 0 188 -37t132 -106q57 6 90.5 48t56.5 154h165q-24 -155 -81.5 -236.5t-170.5 -96.5q16 -55 19.5 -122t-7.5 -146q-23 -157 -95 -276.5t-186 -187.5t-265 -68zM508 165
q79 0 137 46t94.5 126t50.5 182q13 95 1 175t-56 128.5t-130 48.5q-82 0 -140.5 -44.5t-95 -124t-50.5 -183.5q-12 -94 -0.5 -174.5t56.5 -130t133 -49.5z" />
    <glyph glyph-name="Uhorn" unicode="&#x1af;" horiz-adv-x="1631" 
d="M632 -20q-194 0 -302 66.5t-142.5 192t-9.5 303.5l132 904h245l-135 -929q-17 -112 8 -184.5t85 -108t150 -35.5q134 0 226 79.5t116 248.5l135 929h241l-24 -168q44 2 74 18t51.5 59.5t38.5 125.5h165q-19 -122 -58 -198.5t-109 -110t-182 -27.5l-89 -617
q-25 -172 -97 -294.5t-199.5 -188t-319.5 -65.5z" />
    <glyph glyph-name="uhorn" unicode="&#x1b0;" horiz-adv-x="1328" 
d="M430 -20q-72 0 -137 22.5t-113.5 66t-71.5 107.5t-11 149l99 709h242l-96 -681q-12 -84 31.5 -138t145.5 -54q93 0 156.5 51.5t76.5 148.5l95 673h239l-18 -125q45 1 76 17.5t52.5 60t38.5 126.5h165q-19 -122 -58.5 -199t-109.5 -110.5t-182 -27.5l-110 -776h-183l1 202
q-30 -85 -83 -133.5t-117 -68.5t-128 -20z" />
    <glyph glyph-name="uni01D4" unicode="&#x1d4;" horiz-adv-x="1151" 
d="M429 -20q-72 0 -137 22.5t-113 66t-71 107.5t-11 149l99 709h241l-96 -681q-12 -84 32 -138t145 -54q94 0 157 51.5t77 148.5l95 673h238l-145 -1034h-184l1 202q-29 -85 -82.5 -133.5t-117.5 -68.5t-128 -20zM571 1155l-214 244h190l122 -143l151 143h199l-278 -244
h-170z" />
    <glyph glyph-name="uni01EA" unicode="&#x1ea;" horiz-adv-x="1454" 
d="M630 -337q-96 0 -142.5 42t-35.5 119q8 57 53.5 104.5t162.5 85.5l170 -9q-106 -40 -151.5 -75t-52.5 -79q-4 -33 11.5 -50.5t55.5 -17.5q46 0 82 13t63 28l-18 -117q-27 -15 -81.5 -29.5t-116.5 -14.5zM649 -20q-193 0 -320.5 88t-179 253t-17.5 397q35 235 136.5 402
t255 256.5t343.5 89.5t316 -89t178 -256t18 -401q-34 -232 -134 -398t-252.5 -254t-343.5 -88zM680 184q112 0 200.5 55.5t149 173t86.5 304.5q29 190 2.5 310.5t-98.5 177.5t-184 57q-167 0 -283.5 -130.5t-158.5 -414.5q-27 -187 0 -304.5t100.5 -173t185.5 -55.5z" />
    <glyph glyph-name="uni01EB" unicode="&#x1eb;" horiz-adv-x="1108" 
d="M418 -336q-96 0 -142.5 42t-35.5 119q8 57 53.5 104.5t162.5 85.5l170 -9q-106 -40 -151.5 -75t-52.5 -79q-4 -33 11.5 -50.5t55.5 -17.5q46 0 82 13t63 28l-18 -117q-27 -15 -81.5 -29.5t-116.5 -14.5zM478 -20q-142 0 -239 63.5t-138.5 182.5t-17.5 286q23 162 97 284
t189.5 190t262.5 68q143 0 239 -65t136.5 -186t16.5 -291q-23 -157 -95 -276.5t-186 -187.5t-265 -68zM508 165q79 0 137 46t94.5 126t50.5 182q13 95 1 175t-56 128.5t-130 48.5q-82 0 -140.5 -44.5t-95 -124t-50.5 -183.5q-12 -94 -0.5 -174.5t56.5 -130t133 -49.5z" />
    <glyph glyph-name="Aringacute" unicode="&#x1fa;" horiz-adv-x="1394" 
d="M1047 1911l-76 -140q50 -21 76.5 -69.5t16.5 -112.5q-12 -87 -77.5 -142.5t-149.5 -55.5q-82 0 -130 57t-36 145q10 71 60 122t116 64l50 132h150zM963 1587q7 44 -17.5 73.5t-66.5 29.5q-39 0 -73 -29.5t-41 -73.5q-6 -41 19.5 -73.5t65.5 -32.5q41 0 73.5 32.5
t39.5 73.5zM-3 0l711 1446h257l286 -1446h-239l-69 363h-527l-178 -363h-241zM503 579h412l-112 630z" />
    <glyph glyph-name="aringacute" unicode="&#x1fb;" horiz-adv-x="1091" 
d="M846 1499l-77 -140q50 -21 76.5 -69.5t17.5 -112.5q-13 -87 -78.5 -142.5t-149.5 -55.5q-82 0 -130 57t-36 145q10 71 60 122t116 64l50 132h151zM761 1175q7 44 -17.5 73.5t-66.5 29.5q-38 0 -72.5 -29.5t-41.5 -73.5q-6 -41 19.5 -73.5t65.5 -32.5q41 0 74 32.5
t39 73.5zM348 -20q-96 0 -166 36.5t-103 105t-19 166.5q25 171 157 258t392 91l146 4l10 70q12 85 -32.5 130t-131.5 44q-70 -1 -136.5 -37t-97.5 -114h-203q21 99 86 171t165 110.5t222 38.5q142 0 226.5 -41t116.5 -115t17 -173l-106 -725h-201l6 181
q-71 -116 -157.5 -158.5t-190.5 -42.5zM449 145q43 0 86.5 16.5t81 45t63 63.5t31.5 73l24 163l-119 -2q-88 -1 -157.5 -20t-112.5 -60.5t-54 -110.5q-11 -79 34 -123.5t123 -44.5z" />
    <glyph glyph-name="AEacute" unicode="&#x1fc;" horiz-adv-x="1954" 
d="M-73 0l963 1446h1066l-31 -205h-658l-60 -410h582l-30 -204h-582l-61 -420h680l-30 -207h-954l54 366h-458l-240 -366h-241zM531 579h366l103 702zM1315 1567l238 291h260l-317 -291h-181z" />
    <glyph glyph-name="aeacute" unicode="&#x1fd;" horiz-adv-x="1773" 
d="M350 -20q-96 0 -166 36.5t-104 105t-20 166.5q23 171 155.5 258t394.5 91l147 4l10 70q11 85 -33 130t-133 44q-70 -1 -135 -37t-96 -114h-204q19 99 83.5 171t164 110.5t222.5 38.5q128 0 210 -41t114 -115q65 75 153 115.5t193 40.5q148 0 239 -65t126 -181.5
t12 -272.5l-12 -74h-685q-14 -88 3.5 -156t66.5 -106.5t128 -38.5q82 0 147.5 38.5t97.5 117.5h218q-33 -108 -109.5 -183t-175.5 -114t-200 -39q-139 0 -237 61.5t-141 175.5q-31 -73 -94 -126.5t-149.5 -82t-190.5 -28.5zM452 145q70 0 127 34.5t94 85t45 100.5l20 141
l-121 -2q-88 -1 -158 -20t-113 -60.5t-53 -110.5q-11 -79 34.5 -123.5t124.5 -44.5zM1007 612h461q11 75 -5 135.5t-61.5 96t-122.5 35.5q-76 0 -133.5 -39t-93 -100.5t-45.5 -127.5zM880 1155l238 291h260l-317 -291h-181z" />
    <glyph glyph-name="Oslashacute" unicode="&#x1fe;" horiz-adv-x="1481" 
d="M84 -27l-95 116l187 179q-37 88 -46.5 201t10.5 249q34 235 135 402t254.5 256.5t343.5 89.5q131 0 230.5 -42t166.5 -123l181 170l94 -114l-194 -187q36 -88 45 -201t-10 -249q-33 -232 -133 -398t-253 -254t-344 -88q-130 0 -229.5 41t-166.5 118zM688 181
q149 0 243.5 103t137.5 320q19 90 26.5 175.5t3.5 170.5l-648 -641q64 -128 237 -128zM426 487l651 643q-31 71 -89 104t-144 33q-153 0 -251 -111t-143 -344q-16 -86 -22 -167t-2 -158zM785 1567l238 291h260l-317 -291h-181z" />
    <glyph glyph-name="oslashacute" unicode="&#x1ff;" horiz-adv-x="1097" 
d="M71 -13l-87 92l1012 965l85 -92zM452 -20q-142 0 -239 63.5t-138.5 182.5t-17.5 286q23 162 97 284t189.5 190t262.5 68q143 0 239 -65t136.5 -186t16.5 -291q-23 -157 -95 -276.5t-186 -187.5t-265 -68zM481 165q80 0 138 46t94.5 126t50.5 182q13 95 1 175t-56.5 128.5
t-129.5 48.5q-82 0 -140.5 -44.5t-95 -124t-50.5 -183.5q-12 -94 -0.5 -174.5t56.5 -130t132 -49.5zM449 1155l238 291h260l-317 -291h-181z" />
    <glyph glyph-name="uni0200" unicode="&#x200;" horiz-adv-x="1394" 
d="M-3 0l711 1446h257l286 -1446h-239l-69 363h-527l-178 -363h-241zM503 579h412l-112 630zM592 1567l-253 291h232l195 -291h-174zM905 1567l-205 291h225l153 -291h-173z" />
    <glyph glyph-name="uni0201" unicode="&#x201;" horiz-adv-x="1197" 
d="M429 -20q-96 0 -166 36.5t-103 105t-19 166.5q25 171 157 258t392 91l146 4l10 70q12 85 -32.5 130t-131.5 44q-70 -1 -136.5 -37t-97.5 -114h-203q21 99 86 171t165 110.5t222 38.5q142 0 226.5 -41t116.5 -115t17 -173l-106 -725h-201l6 181q-71 -116 -157.5 -158.5
t-190.5 -42.5zM530 145q43 0 86.5 16.5t81 45t63 63.5t31.5 73l24 163l-119 -2q-88 -1 -157.5 -20t-112.5 -60.5t-54 -110.5q-11 -79 34 -123.5t123 -44.5zM482 1155l-253 291h232l195 -291h-174zM795 1155l-205 291h225l153 -291h-173z" />
    <glyph glyph-name="uni0202" unicode="&#x202;" horiz-adv-x="1394" 
d="M-3 0l711 1446h257l286 -1446h-239l-69 363h-527l-178 -363h-241zM503 579h412l-112 630zM539 1578q30 73 81.5 126t119.5 82.5t147 29.5q81 0 142 -31t98.5 -85t48.5 -122h-154q-17 41 -52 74.5t-100 33.5q-45 0 -78.5 -16.5t-58 -41.5t-41.5 -50h-153z" />
    <glyph glyph-name="uni0203" unicode="&#x203;" horiz-adv-x="1116" 
d="M348 -20q-96 0 -166 36.5t-103 105t-19 166.5q25 171 157 258t392 91l146 4l10 70q12 85 -32.5 130t-131.5 44q-70 -1 -136.5 -37t-97.5 -114h-203q21 99 86 171t165 110.5t222 38.5q142 0 226.5 -41t116.5 -115t17 -173l-106 -725h-201l6 181q-71 -116 -157.5 -158.5
t-190.5 -42.5zM449 145q43 0 86.5 16.5t81 45t63 63.5t31.5 73l24 163l-119 -2q-88 -1 -157.5 -20t-112.5 -60.5t-54 -110.5q-11 -79 34 -123.5t123 -44.5zM330 1166q30 73 81.5 126t119.5 82.5t147 29.5q81 0 142 -31t98.5 -85t48.5 -122h-154q-17 41 -52 74.5t-100 33.5
q-45 0 -78.5 -16.5t-58 -41.5t-41.5 -50h-153z" />
    <glyph glyph-name="uni0204" unicode="&#x204;" horiz-adv-x="1231" 
d="M102 0l213 1446h921l-32 -209h-680l-59 -405h599l-30 -206h-600l-61 -414l696 -1l-32 -211h-935zM510 1567l-253 291h232l195 -291h-174zM823 1567l-205 291h225l153 -291h-173z" />
    <glyph glyph-name="uni0205" unicode="&#x205;" horiz-adv-x="1109" 
d="M498 -20q-144 0 -244 63.5t-144 181.5t-20 281q23 159 97 282.5t190 194.5t265 71q148 0 239 -65t126 -181.5t12 -272.5l-12 -74h-685q-13 -88 4 -156t66 -106.5t128 -38.5q82 0 147.5 38.5t97.5 117.5h218q-33 -108 -109 -183t-175 -114t-201 -39zM343 612h461
q11 75 -5 135.5t-61.5 96t-122.5 35.5q-76 0 -134 -39t-93 -100.5t-45 -127.5zM394 1155l-253 291h232l195 -291h-174zM707 1155l-205 291h225l153 -291h-173z" />
    <glyph glyph-name="uni0206" unicode="&#x206;" horiz-adv-x="1231" 
d="M102 0l213 1446h921l-32 -209h-680l-59 -405h599l-30 -206h-600l-61 -414l696 -1l-32 -211h-935zM457 1578q30 73 81.5 126t119.5 82.5t147 29.5q81 0 142 -31t98.5 -85t48.5 -122h-154q-17 41 -52 74.5t-100 33.5q-45 0 -78.5 -16.5t-58 -41.5t-41.5 -50h-153z" />
    <glyph glyph-name="uni0207" unicode="&#x207;" horiz-adv-x="1109" 
d="M498 -20q-144 0 -244 63.5t-144 181.5t-20 281q23 159 97 282.5t190 194.5t265 71q148 0 239 -65t126 -181.5t12 -272.5l-12 -74h-685q-13 -88 4 -156t66 -106.5t128 -38.5q82 0 147.5 38.5t97.5 117.5h218q-33 -108 -109 -183t-175 -114t-201 -39zM343 612h461
q11 75 -5 135.5t-61.5 96t-122.5 35.5q-76 0 -134 -39t-93 -100.5t-45 -127.5zM342 1166q30 73 81.5 126t119.5 82.5t147 29.5q81 0 142 -31t98.5 -85t48.5 -122h-154q-17 41 -52 74.5t-100 33.5q-45 0 -78.5 -16.5t-58 -41.5t-41.5 -50h-153z" />
    <glyph glyph-name="uni0208" unicode="&#x208;" horiz-adv-x="598" 
d="M103 0l211 1446h240l-211 -1446h-240zM190 1567l-253 291h232l195 -291h-174zM503 1567l-205 291h225l153 -291h-173z" />
    <glyph glyph-name="uni0209" unicode="&#x209;" horiz-adv-x="522" 
d="M65 0l152 1034h240l-152 -1034h-240zM94 1155l-253 291h232l195 -291h-174zM407 1155l-205 291h225l153 -291h-173z" />
    <glyph glyph-name="uni020A" unicode="&#x20a;" horiz-adv-x="598" 
d="M103 0l211 1446h240l-211 -1446h-240zM138 1578q30 73 81.5 126t119.5 82.5t147 29.5q81 0 142 -31t98.5 -85t48.5 -122h-154q-17 41 -52 74.5t-100 33.5q-45 0 -78.5 -16.5t-58 -41.5t-41.5 -50h-153z" />
    <glyph glyph-name="uni020B" unicode="&#x20b;" horiz-adv-x="522" 
d="M65 0l152 1034h240l-152 -1034h-240zM42 1166q30 73 81.5 126t119.5 82.5t147 29.5q81 0 142 -31t98.5 -85t48.5 -122h-154q-17 41 -52 74.5t-100 33.5q-45 0 -78.5 -16.5t-58 -41.5t-41.5 -50h-153z" />
    <glyph glyph-name="uni020C" unicode="&#x20c;" horiz-adv-x="1454" 
d="M649 -20q-193 0 -320.5 88t-179 253t-17.5 397q35 235 136.5 402t255 256.5t343.5 89.5t316 -89t178 -256t18 -401q-34 -232 -134 -398t-252.5 -254t-343.5 -88zM680 184q112 0 200.5 55.5t149 173t86.5 304.5q29 190 2.5 310.5t-98.5 177.5t-184 57
q-167 0 -283.5 -130.5t-158.5 -414.5q-27 -187 0 -304.5t100.5 -173t185.5 -55.5zM609 1567l-253 291h232l195 -291h-174zM922 1567l-205 291h225l153 -291h-173z" />
    <glyph glyph-name="uni020D" unicode="&#x20d;" horiz-adv-x="1108" 
d="M478 -20q-142 0 -239 63.5t-138.5 182.5t-17.5 286q23 162 97 284t189.5 190t262.5 68q143 0 239 -65t136.5 -186t16.5 -291q-23 -157 -95 -276.5t-186 -187.5t-265 -68zM508 165q79 0 137 46t94.5 126t50.5 182q13 95 1 175t-56 128.5t-130 48.5q-82 0 -140.5 -44.5
t-95 -124t-50.5 -183.5q-12 -94 -0.5 -174.5t56.5 -130t133 -49.5zM368 1155l-253 291h232l195 -291h-174zM681 1155l-205 291h225l153 -291h-173z" />
    <glyph glyph-name="uni020E" unicode="&#x20e;" horiz-adv-x="1454" 
d="M649 -20q-193 0 -320.5 88t-179 253t-17.5 397q35 235 136.5 402t255 256.5t343.5 89.5t316 -89t178 -256t18 -401q-34 -232 -134 -398t-252.5 -254t-343.5 -88zM680 184q112 0 200.5 55.5t149 173t86.5 304.5q29 190 2.5 310.5t-98.5 177.5t-184 57
q-167 0 -283.5 -130.5t-158.5 -414.5q-27 -187 0 -304.5t100.5 -173t185.5 -55.5zM557 1578q30 73 81.5 126t119.5 82.5t147 29.5q81 0 142 -31t98.5 -85t48.5 -122h-154q-17 41 -52 74.5t-100 33.5q-45 0 -78.5 -16.5t-58 -41.5t-41.5 -50h-153z" />
    <glyph glyph-name="uni020F" unicode="&#x20f;" horiz-adv-x="1108" 
d="M478 -20q-142 0 -239 63.5t-138.5 182.5t-17.5 286q23 162 97 284t189.5 190t262.5 68q143 0 239 -65t136.5 -186t16.5 -291q-23 -157 -95 -276.5t-186 -187.5t-265 -68zM508 165q79 0 137 46t94.5 126t50.5 182q13 95 1 175t-56 128.5t-130 48.5q-82 0 -140.5 -44.5
t-95 -124t-50.5 -183.5q-12 -94 -0.5 -174.5t56.5 -130t133 -49.5zM316 1166q30 73 81.5 126t119.5 82.5t147 29.5q81 0 142 -31t98.5 -85t48.5 -122h-154q-17 41 -52 74.5t-100 33.5q-45 0 -78.5 -16.5t-58 -41.5t-41.5 -50h-153z" />
    <glyph glyph-name="uni0210" unicode="&#x210;" horiz-adv-x="1338" 
d="M102 0l212 1446h566q159 0 255.5 -51.5t132.5 -145t18 -218.5q-17 -116 -64.5 -194.5t-113 -128t-135.5 -80.5l172 -628h-249l-152 587h-317l-86 -587h-239zM456 780h275q86 0 152 28.5t107 83t52 130.5q16 112 -43 173t-171 61h-303zM547 1567l-253 291h232l195 -291
h-174zM860 1567l-205 291h225l153 -291h-173z" />
    <glyph glyph-name="uni0211" unicode="&#x211;" horiz-adv-x="782" 
d="M65 0l146 1034h230l-31 -224q35 77 87 131.5t117.5 83.5t137.5 29q18 0 33 -2t23 -7l-33 -233q-10 5 -26 7t-28 2q-97 8 -167 -15.5t-111 -75.5t-53 -129l-84 -601h-241zM237 1155l-253 291h232l195 -291h-174zM550 1155l-205 291h225l153 -291h-173z" />
    <glyph glyph-name="uni0212" unicode="&#x212;" horiz-adv-x="1338" 
d="M102 0l212 1446h566q159 0 255.5 -51.5t132.5 -145t18 -218.5q-17 -116 -64.5 -194.5t-113 -128t-135.5 -80.5l172 -628h-249l-152 587h-317l-86 -587h-239zM456 780h275q86 0 152 28.5t107 83t52 130.5q16 112 -43 173t-171 61h-303zM405 1578q30 73 81.5 126
t119.5 82.5t147 29.5q81 0 142 -31t98.5 -85t48.5 -122h-154q-17 41 -52 74.5t-100 33.5q-45 0 -78.5 -16.5t-58 -41.5t-41.5 -50h-153z" />
    <glyph glyph-name="uni0213" unicode="&#x213;" horiz-adv-x="782" 
d="M65 0l146 1034h230l-31 -224q35 77 87 131.5t117.5 83.5t137.5 29q18 0 33 -2t23 -7l-33 -233q-10 5 -26 7t-28 2q-97 8 -167 -15.5t-111 -75.5t-53 -129l-84 -601h-241zM184 1166q30 73 81.5 126t119.5 82.5t147 29.5q81 0 142 -31t98.5 -85t48.5 -122h-154
q-17 41 -52 74.5t-100 33.5q-45 0 -78.5 -16.5t-58 -41.5t-41.5 -50h-153z" />
    <glyph glyph-name="uni0214" unicode="&#x214;" horiz-adv-x="1391" 
d="M632 -20q-194 0 -302 66.5t-143 192t-9 303.5l132 904h245l-135 -929q-17 -112 8 -184.5t85 -108t150 -35.5q134 0 226 79.5t116 248.5l135 929h241l-133 -918q-25 -172 -97 -294.5t-199.5 -188t-319.5 -65.5zM601 1567l-253 291h232l195 -291h-174zM914 1567l-205 291
h225l153 -291h-173z" />
    <glyph glyph-name="uni0215" unicode="&#x215;" horiz-adv-x="1151" 
d="M429 -20q-72 0 -137 22.5t-113 66t-71 107.5t-11 149l99 709h241l-96 -681q-12 -84 32 -138t145 -54q94 0 157 51.5t77 148.5l95 673h238l-145 -1034h-184l1 202q-29 -85 -82.5 -133.5t-117.5 -68.5t-128 -20zM396 1155l-253 291h232l195 -291h-174zM709 1155l-205 291
h225l153 -291h-173z" />
    <glyph glyph-name="uni0216" unicode="&#x216;" horiz-adv-x="1391" 
d="M632 -20q-194 0 -302 66.5t-143 192t-9 303.5l132 904h245l-135 -929q-17 -112 8 -184.5t85 -108t150 -35.5q134 0 226 79.5t116 248.5l135 929h241l-133 -918q-25 -172 -97 -294.5t-199.5 -188t-319.5 -65.5zM549 1578q30 73 81.5 126t119.5 82.5t147 29.5q81 0 142 -31
t98.5 -85t48.5 -122h-154q-17 41 -52 74.5t-100 33.5q-45 0 -78.5 -16.5t-58 -41.5t-41.5 -50h-153z" />
    <glyph glyph-name="uni0217" unicode="&#x217;" horiz-adv-x="1151" 
d="M429 -20q-72 0 -137 22.5t-113 66t-71 107.5t-11 149l99 709h241l-96 -681q-12 -84 32 -138t145 -54q94 0 157 51.5t77 148.5l95 673h238l-145 -1034h-184l1 202q-29 -85 -82.5 -133.5t-117.5 -68.5t-128 -20zM343 1166q30 73 81.5 126t119.5 82.5t147 29.5q81 0 142 -31
t98.5 -85t48.5 -122h-154q-17 41 -52 74.5t-100 33.5q-45 0 -78.5 -16.5t-58 -41.5t-41.5 -50h-153z" />
    <glyph glyph-name="uni0218" unicode="&#x218;" horiz-adv-x="1347" 
d="M607 -20q-102 0 -196 25.5t-166.5 77.5t-113.5 131t-38 186h252q5 -73 43.5 -123t102 -76t143.5 -26q86 0 159 24t120.5 70t57.5 113q8 59 -16.5 100t-74.5 67.5t-120 42.5l-248 58q-154 33 -232 128t-57 253q18 131 101 228.5t210 151t276 53.5q164 0 274.5 -62
t163.5 -160.5t45 -207.5h-247q3 86 -30 137t-93.5 73t-138.5 22q-76 0 -141.5 -24.5t-108 -71.5t-51.5 -112q-9 -70 30 -113.5t157 -73.5l242 -58q116 -24 182 -72t95 -109.5t32.5 -125.5t-4.5 -122q-15 -113 -96 -205t-213 -145.5t-301 -53.5zM409 -413l104 138l-70 7
l25 173h216l-21 -144l-165 -174h-89z" />
    <glyph glyph-name="uni0219" unicode="&#x219;" horiz-adv-x="1010" 
d="M445 -20q-104 0 -192.5 34.5t-142 108.5t-54.5 191h212q4 -57 33.5 -93t73.5 -52.5t93 -16.5q89 0 148 32t68 99q7 49 -19.5 78t-92.5 44l-182 45q-123 29 -190.5 96t-51.5 189q12 92 68 164t151.5 113.5t228.5 41.5q176 0 271 -80.5t76 -229.5h-204q-1 67 -45.5 104.5
t-123.5 37.5q-82 0 -139 -33t-66 -101q-7 -47 29.5 -74t115.5 -46l171 -45q74 -20 119.5 -54t67.5 -74.5t27 -83t0 -78.5q-14 -100 -73.5 -170.5t-156.5 -108.5t-220 -38zM263 -413l104 138l-70 7l25 173h216l-21 -144l-165 -174h-89z" />
    <glyph glyph-name="uni021A" unicode="&#x21a;" horiz-adv-x="1174" 
d="M394 0l178 1227h-429l32 219h1085l-32 -219h-416l-179 -1227h-239zM343 -411l104 138l-70 7l25 173h216l-21 -144l-165 -174h-89z" />
    <glyph glyph-name="uni021B" unicode="&#x21b;" horiz-adv-x="790" 
d="M461 -8q-119 0 -180.5 32.5t-78.5 92.5t-5 143l88 602h-162l27 172h167l85 307h192l-44 -306h223l-26 -173h-223l-84 -588q-10 -69 12.5 -88t75.5 -19h122l-23 -154q-20 -8 -60 -14.5t-106 -6.5zM207 -403l104 138l-70 7l25 173h216l-21 -144l-165 -174h-89z" />
    <glyph glyph-name="uni0237" unicode="&#x237;" horiz-adv-x="543" 
d="M-33 -332q-79 0 -100.5 10.5t-21.5 16.5l24 162l87 6q63 8 92 36.5t37 88.5l154 1046h239l-153 -1051q-23 -158 -107 -236.5t-251 -78.5z" />
    <glyph glyph-name="uni0259" unicode="&#x259;" horiz-adv-x="1109" 
d="M467 -20q-147 0 -238.5 65t-126 181.5t-12.5 272.5l12 74h685q14 88 -3.5 156t-66.5 106.5t-128 38.5q-82 0 -147.5 -38.5t-97.5 -117.5h-218q33 108 109 183t175.5 114t200.5 39q144 0 244 -63.5t144 -181.5t20 -281q-23 -159 -97 -282.5t-189.5 -194.5t-265.5 -71z
M494 155q77 0 134.5 39t93 100.5t44.5 127.5h-461q-11 -75 5 -135.5t61.5 -96t122.5 -35.5z" />
    <glyph glyph-name="uni02BB" unicode="&#x2bb;" horiz-adv-x="474" 
d="M160 944l34 223q8 58 36.5 111t70.5 91.5t91 57t100 7.5l-13 -78l-19 -2q-40 -4 -80.5 -42.5t-47.5 -91.5l-3 -15l126 -10l-37 -251h-258z" />
    <glyph glyph-name="uni02BC" unicode="&#x2bc;" horiz-adv-x="536" 
d="M160 948l24 78l19 2q40 5 84.5 43.5t59.5 90.5l5 15l-121 10l73 251h251l-66 -223q-16 -58 -51.5 -111t-81.5 -91.5t-97 -57t-99 -7.5z" />
    <glyph glyph-name="circumflex" unicode="&#x2c6;" horiz-adv-x="688" 
d="M104 1155l262 244h167l232 -244h-201l-121 135l-150 -135h-189z" />
    <glyph glyph-name="caron" unicode="&#x2c7;" horiz-adv-x="701" 
d="M353 1155l-214 244h190l122 -143l151 143h199l-278 -244h-170z" />
    <glyph glyph-name="breve" unicode="&#x2d8;" horiz-adv-x="688" 
d="M431 1156q-79 0 -139 29t-97 82.5t-46 125.5h153q11 -25 28 -49.5t46 -41.5t74 -17q65 0 109.5 34t73.5 74h153q-30 -68 -82.5 -121.5t-122 -84.5t-150.5 -31z" />
    <glyph glyph-name="dotaccent" unicode="&#x2d9;" horiz-adv-x="254" 
d="M112 1235l31 211h231l-31 -211h-231z" />
    <glyph glyph-name="ring" unicode="&#x2da;" horiz-adv-x="479" 
d="M320 1132q-85 0 -135.5 62.5t-36.5 153.5q8 56 42.5 102.5t85 74.5t106.5 28q86 0 136.5 -61t37.5 -148q-9 -60 -43.5 -108t-85 -76t-107.5 -28zM334 1237q41 0 74 32t40 74q6 44 -18 73t-66 29q-39 0 -73.5 -29t-41.5 -73q-6 -42 19.5 -74t65.5 -32z" />
    <glyph glyph-name="ogonek" unicode="&#x2db;" horiz-adv-x="465" 
d="M112 -334q-96 0 -142.5 42t-35.5 119q8 57 53.5 104.5t162.5 85.5l170 -9q-106 -40 -151.5 -75t-52.5 -79q-4 -34 11.5 -51t55.5 -17q46 0 82 13t63 27l-17 -116q-28 -15 -82.5 -29.5t-116.5 -14.5z" />
    <glyph glyph-name="tilde" unicode="&#x2dc;" horiz-adv-x="745" 
d="M191 1208l-21 123q39 36 82.5 60.5t104.5 24.5q51 0 94.5 -14.5t84.5 -29t84 -14.5q46 0 85.5 20t72.5 43l13 -141q-31 -23 -80.5 -44.5t-112.5 -21.5q-52 0 -91.5 14t-77.5 27.5t-84 13.5q-48 0 -81.5 -16.5t-72.5 -44.5z" />
    <glyph glyph-name="hungarumlaut" unicode="&#x2dd;" horiz-adv-x="718" 
d="M413 1155l195 291h231l-253 -291h-173zM100 1155l153 291h226l-206 -291h-173z" />
    <glyph glyph-name="gravecomb" unicode="&#x300;" 
d="M463 1155l-284 291h255l205 -291h-176z" />
    <glyph glyph-name="acutecomb" unicode="&#x301;" 
d="M100 1155l238 291h260l-317 -291h-181z" />
    <glyph glyph-name="uni0302" unicode="&#x302;" 
d="M104 1155l262 244h167l232 -244h-201l-121 135l-150 -135h-189z" />
    <glyph glyph-name="tildecomb" unicode="&#x303;" 
d="M191 1208l-21 123q39 36 82.5 60.5t104.5 24.5q51 0 94.5 -14.5t84.5 -29t84 -14.5q46 0 85.5 20t72.5 43l13 -141q-31 -23 -80.5 -44.5t-112.5 -21.5q-52 0 -91.5 14t-77.5 27.5t-84 13.5q-48 0 -81.5 -16.5t-72.5 -44.5z" />
    <glyph glyph-name="uni0304" unicode="&#x304;" 
d="M135 1219l23 161h635l-24 -161h-634z" />
    <glyph glyph-name="uni0306" unicode="&#x306;" 
d="M431 1156q-79 0 -139 29t-97 82.5t-46 125.5h153q11 -25 28 -49.5t46 -41.5t74 -17q65 0 109.5 34t73.5 74h153q-30 -68 -82.5 -121.5t-122 -84.5t-150.5 -31z" />
    <glyph glyph-name="uni0307" unicode="&#x307;" 
d="M112 1235l31 211h231l-31 -211h-231z" />
    <glyph glyph-name="uni0308" unicode="&#x308;" 
d="M503 1235l31 211h231l-31 -211h-231zM109 1235l31 211h232l-31 -211h-232z" />
    <glyph glyph-name="hookabovecomb" unicode="&#x309;" 
d="M744 1144l-46 98q43 26 62.5 60.5t4.5 68.5q-13 31 -51.5 31.5t-79.5 -24.5l-46 96q95 57 175 44.5t112 -80.5q39 -80 5 -158t-136 -136z" />
    <glyph glyph-name="uni030A" unicode="&#x30a;" 
d="M320 1132q-85 0 -135.5 62.5t-36.5 153.5q8 56 42.5 102.5t85 74.5t106.5 28q86 0 136.5 -61t37.5 -148q-9 -60 -43.5 -108t-85 -76t-107.5 -28zM334 1237q41 0 74 32t40 74q6 44 -18 73t-66 29q-39 0 -73.5 -29t-41.5 -73q-6 -42 19.5 -74t65.5 -32z" />
    <glyph glyph-name="uni030B" unicode="&#x30b;" 
d="M413 1155l195 291h231l-253 -291h-173zM100 1155l153 291h226l-206 -291h-173z" />
    <glyph glyph-name="uni030C" unicode="&#x30c;" 
d="M353 1155l-214 244h190l122 -143l151 143h199l-278 -244h-170z" />
    <glyph glyph-name="uni030F" unicode="&#x30f;" 
d="M394 1155l-253 291h232l195 -291h-174zM707 1155l-205 291h225l153 -291h-173z" />
    <glyph glyph-name="uni0311" unicode="&#x311;" 
d="M106 1166q30 73 81.5 126t119.5 82.5t147 29.5q81 0 142 -31t98.5 -85t48.5 -122h-154q-17 41 -52 74.5t-100 33.5q-45 0 -78.5 -16.5t-58 -41.5t-41.5 -50h-153z" />
    <glyph glyph-name="uni0312" unicode="&#x312;" 
d="M548 1155l28 194l124 151h99l-124 -163h86l-26 -182h-187z" />
    <glyph glyph-name="uni031B" unicode="&#x31b;" 
d="M58 927l19 133q46 -1 79 3t56.5 22.5t41 59.5t33.5 114h168q-20 -131 -64 -209t-124 -108t-209 -15z" />
    <glyph glyph-name="dotbelowcomb" unicode="&#x323;" 
d="M-116 -380l31 211h231l-31 -211h-231z" />
    <glyph glyph-name="uni0326" unicode="&#x326;" 
d="M-128 -413l104 138l-70 7l25 173h216l-21 -144l-165 -174h-89z" />
    <glyph glyph-name="uni0327" unicode="&#x327;" 
d="M100 -419q-56 0 -106.5 12t-90.5 40l48 89q25 -19 58 -33.5t75 -14.5q49 0 76.5 17.5t32.5 49.5q6 41 -27 62t-119 22q-12 0 -15 3.5t3 13.5l95 168h112l-61 -119q69 -2 106 -25.5t49.5 -57.5t7.5 -68q-7 -51 -43 -86.5t-89 -54t-112 -18.5z" />
    <glyph glyph-name="uni0328" unicode="&#x328;" 
d="M112 -334q-96 0 -142.5 42t-35.5 119q8 57 53.5 104.5t162.5 85.5l170 -9q-106 -40 -151.5 -75t-52.5 -79q-4 -34 11.5 -51t55.5 -17q46 0 82 13t63 27l-17 -116q-28 -15 -82.5 -29.5t-116.5 -14.5z" />
    <glyph glyph-name="pi" unicode="&#x3c0;" horiz-adv-x="1340" 
d="M122 0q28 84 55 186t50.5 214.5t39.5 225.5t21 216q2 20 -15 20h-170l19 172h1226l-19 -172h-206l-57 -862h-234l56 862h-365q-5 -109 -22.5 -230t-42 -239t-53 -219.5t-57.5 -173.5h-226z" />
    <glyph glyph-name="uni1E0C" unicode="&#x1e0c;" horiz-adv-x="1384" 
d="M103 0l207 1446q8 0 68.5 -0.5t135.5 -0.5q139 0 262 -14t222.5 -48.5t171.5 -97.5t110.5 -161.5t38.5 -239.5q0 -95 -15.5 -196.5t-52 -200.5t-99 -186.5t-156 -155t-222.5 -106.5t-300 -39h-371zM377 201h119q145 0 253 52t179.5 144t107 215t35.5 265q0 134 -48 215
t-139 117t-219 36h-137zM346 -380l31 211h231l-31 -211h-231z" />
    <glyph glyph-name="uni1E0D" unicode="&#x1e0d;" horiz-adv-x="1178" 
d="M434 -20q-198 0 -291.5 141t-58.5 401q33 243 155 387.5t319 144.5q61 0 109 -15.5t84 -40.5t59.5 -55t35.5 -60l82 603h241l-201 -1486h-178l2 212q-16 -37 -44.5 -77.5t-71.5 -75.5t-102.5 -57t-139.5 -22zM508 159q125 0 194 85.5t96 283.5q14 113 -1 190t-61.5 116
t-128.5 39q-104 0 -182.5 -81t-102.5 -264q-25 -182 24.5 -275.5t161.5 -93.5zM334 -380l31 211h231l-31 -211h-231z" />
    <glyph glyph-name="uni1E24" unicode="&#x1e24;" horiz-adv-x="1499" 
d="M102 0l204 1446h240l-84 -597h668l84 597h240l-203 -1446h-241l91 642h-668l-90 -642h-241zM506 -380l31 211h231l-31 -211h-231z" />
    <glyph glyph-name="uni1E25" unicode="&#x1e25;" horiz-adv-x="1152" 
d="M72 0l211 1486h238l-84 -592q44 58 120 103.5t196 45.5q95 0 168.5 -39.5t110.5 -111t23 -165.5l-103 -727h-240l97 688q11 77 -37 120.5t-128 43.5q-55 0 -106.5 -20t-86.5 -58.5t-42 -94.5l-97 -679h-240zM351 -380l31 211h231l-31 -211h-231z" />
    <glyph glyph-name="uni1E44" unicode="&#x1e44;" horiz-adv-x="1506" 
d="M102 0l213 1446h234l524 -1033l149 1033h241l-213 -1446h-215l-538 1061l-155 -1061h-240zM801 1647l31 211h231l-31 -211h-231z" />
    <glyph glyph-name="uni1E45" unicode="&#x1e45;" horiz-adv-x="1144" 
d="M65 0l152 1034h233l-18 -138q34 40 78 74t102.5 55t137.5 21q93 0 166 -43t109.5 -124t18.5 -194l-100 -685h-240l97 657q14 94 -32.5 144.5t-124.5 50.5q-55 0 -107 -19.5t-88 -57.5t-44 -94l-101 -681h-239zM578 1235l31 211h231l-31 -211h-231z" />
    <glyph glyph-name="uni1E5A" unicode="&#x1e5a;" horiz-adv-x="1338" 
d="M102 0l212 1446h566q159 0 255.5 -51.5t132.5 -145t18 -218.5q-17 -116 -64.5 -194.5t-113 -128t-135.5 -80.5l172 -628h-249l-152 587h-317l-86 -587h-239zM456 780h275q86 0 152 28.5t107 83t52 130.5q16 112 -43 173t-171 61h-303zM427 -380l31 211h231l-31 -211h-231
z" />
    <glyph glyph-name="uni1E5B" unicode="&#x1e5b;" horiz-adv-x="782" 
d="M65 0l146 1034h230l-31 -224q35 77 87 131.5t117.5 83.5t137.5 29q18 0 33 -2t23 -7l-33 -233q-10 5 -26 7t-28 2q-97 8 -167 -15.5t-111 -75.5t-53 -129l-84 -601h-241zM8 -380l31 211h231l-31 -211h-231z" />
    <glyph glyph-name="uni1E62" unicode="&#x1e62;" horiz-adv-x="1347" 
d="M607 -20q-102 0 -196 25.5t-166.5 77.5t-113.5 131t-38 186h252q5 -73 43.5 -123t102 -76t143.5 -26q86 0 159 24t120.5 70t57.5 113q8 59 -16.5 100t-74.5 67.5t-120 42.5l-248 58q-154 33 -232 128t-57 253q18 131 101 228.5t210 151t276 53.5q164 0 274.5 -62
t163.5 -160.5t45 -207.5h-247q3 86 -30 137t-93.5 73t-138.5 22q-76 0 -141.5 -24.5t-108 -71.5t-51.5 -112q-9 -70 30 -113.5t157 -73.5l242 -58q116 -24 182 -72t95 -109.5t32.5 -125.5t-4.5 -122q-15 -113 -96 -205t-213 -145.5t-301 -53.5zM422 -380l31 211h231
l-31 -211h-231z" />
    <glyph glyph-name="uni1E63" unicode="&#x1e63;" horiz-adv-x="1010" 
d="M445 -20q-104 0 -192.5 34.5t-142 108.5t-54.5 191h212q4 -57 33.5 -93t73.5 -52.5t93 -16.5q89 0 148 32t68 99q7 49 -19.5 78t-92.5 44l-182 45q-123 29 -190.5 96t-51.5 189q12 92 68 164t151.5 113.5t228.5 41.5q176 0 271 -80.5t76 -229.5h-204q-1 67 -45.5 104.5
t-123.5 37.5q-82 0 -139 -33t-66 -101q-7 -47 29.5 -74t115.5 -46l171 -45q74 -20 119.5 -54t67.5 -74.5t27 -83t0 -78.5q-14 -100 -73.5 -170.5t-156.5 -108.5t-220 -38zM276 -380l31 211h231l-31 -211h-231z" />
    <glyph glyph-name="uni1E6C" unicode="&#x1e6c;" horiz-adv-x="1174" 
d="M394 0l178 1227h-429l32 219h1085l-32 -219h-416l-179 -1227h-239zM356 -378l31 211h231l-31 -211h-231z" />
    <glyph glyph-name="uni1E6D" unicode="&#x1e6d;" horiz-adv-x="790" 
d="M461 -8q-119 0 -180.5 32.5t-78.5 92.5t-5 143l88 602h-162l27 172h167l85 307h192l-44 -306h223l-26 -173h-223l-84 -588q-10 -69 12.5 -88t75.5 -19h122l-23 -154q-20 -8 -60 -14.5t-106 -6.5zM220 -370l31 211h231l-31 -211h-231z" />
    <glyph glyph-name="Wgrave" unicode="&#x1e80;" horiz-adv-x="1854" 
d="M368 0l-194 1446h237l126 -1044l431 1044h176l132 -1044l430 1044h235l-620 -1446h-199l-129 1025l-430 -1025h-195zM982 1567l-284 291h255l205 -291h-176z" />
    <glyph glyph-name="wgrave" unicode="&#x1e81;" horiz-adv-x="1511" 
d="M277 0l-164 1034h215l101 -711h10l303 711h174l100 -710h11l301 710h217l-468 -1034h-202l-102 689l-297 -689h-199zM761 1155l-284 291h255l205 -291h-176z" />
    <glyph glyph-name="Wacute" unicode="&#x1e82;" horiz-adv-x="1854" 
d="M368 0l-194 1446h237l126 -1044l431 1044h176l132 -1044l430 1044h235l-620 -1446h-199l-129 1025l-430 -1025h-195zM972 1567l238 291h260l-317 -291h-181z" />
    <glyph glyph-name="wacute" unicode="&#x1e83;" horiz-adv-x="1511" 
d="M277 0l-164 1034h215l101 -711h10l303 711h174l100 -710h11l301 710h217l-468 -1034h-202l-102 689l-297 -689h-199zM751 1155l238 291h260l-317 -291h-181z" />
    <glyph glyph-name="Wdieresis" unicode="&#x1e84;" horiz-adv-x="1854" 
d="M368 0l-194 1446h237l126 -1044l431 1044h176l132 -1044l430 1044h235l-620 -1446h-199l-129 1025l-430 -1025h-195zM1165 1647l31 211h231l-31 -211h-231zM771 1647l31 211h232l-31 -211h-232z" />
    <glyph glyph-name="wdieresis" unicode="&#x1e85;" horiz-adv-x="1511" 
d="M277 0l-164 1034h215l101 -711h10l303 711h174l100 -710h11l301 710h217l-468 -1034h-202l-102 689l-297 -689h-199zM944 1235l31 211h231l-31 -211h-231zM550 1235l31 211h232l-31 -211h-232z" />
    <glyph glyph-name="uni1E92" unicode="&#x1e92;" horiz-adv-x="1280" 
d="M44 0l19 124l888 1115h-685l32 207h1024l-17 -118l-899 -1119h729l-31 -209h-1060zM420 -380l31 211h231l-31 -211h-231z" />
    <glyph glyph-name="uni1E93" unicode="&#x1e93;" horiz-adv-x="955" 
d="M-2 0l18 141l622 720h-485l25 173h776l-17 -141l-622 -720h522l-25 -173h-814zM218 -380l31 211h231l-31 -211h-231z" />
    <glyph glyph-name="uni1EA0" unicode="&#x1ea0;" horiz-adv-x="1394" 
d="M-3 0l711 1446h257l286 -1446h-239l-69 363h-527l-178 -363h-241zM503 579h412l-112 630zM455 -380l31 211h231l-31 -211h-231z" />
    <glyph glyph-name="uni1EA1" unicode="&#x1ea1;" horiz-adv-x="1116" 
d="M348 -20q-96 0 -166 36.5t-103 105t-19 166.5q25 171 157 258t392 91l146 4l10 70q12 85 -32.5 130t-131.5 44q-70 -1 -136.5 -37t-97.5 -114h-203q21 99 86 171t165 110.5t222 38.5q142 0 226.5 -41t116.5 -115t17 -173l-106 -725h-201l6 181q-71 -116 -157.5 -158.5
t-190.5 -42.5zM449 145q43 0 86.5 16.5t81 45t63 63.5t31.5 73l24 163l-119 -2q-88 -1 -157.5 -20t-112.5 -60.5t-54 -110.5q-11 -79 34 -123.5t123 -44.5zM297 -380l31 211h231l-31 -211h-231z" />
    <glyph glyph-name="uni1EA2" unicode="&#x1ea2;" horiz-adv-x="1394" 
d="M-3 0l711 1446h257l286 -1446h-239l-69 363h-527l-178 -363h-241zM503 579h412l-112 630zM917 1544l-46 98q43 26 62.5 60.5t4.5 68.5q-13 31 -51.5 31.5t-79.5 -24.5l-46 96q95 57 175 44.5t112 -80.5q39 -80 5 -158t-136 -136z" />
    <glyph glyph-name="uni1EA3" unicode="&#x1ea3;" horiz-adv-x="1116" 
d="M348 -20q-96 0 -166 36.5t-103 105t-19 166.5q25 171 157 258t392 91l146 4l10 70q12 85 -32.5 130t-131.5 44q-70 -1 -136.5 -37t-97.5 -114h-203q21 99 86 171t165 110.5t222 38.5q142 0 226.5 -41t116.5 -115t17 -173l-106 -725h-201l6 181q-71 -116 -157.5 -158.5
t-190.5 -42.5zM449 145q43 0 86.5 16.5t81 45t63 63.5t31.5 73l24 163l-119 -2q-88 -1 -157.5 -20t-112.5 -60.5t-54 -110.5q-11 -79 34 -123.5t123 -44.5zM707 1132l-46 98q43 26 62.5 60.5t4.5 68.5q-13 31 -51.5 31.5t-79.5 -24.5l-46 96q95 57 175 44.5t112 -80.5
q39 -80 5 -158t-136 -136z" />
    <glyph glyph-name="uni1EA4" unicode="&#x1ea4;" horiz-adv-x="1394" 
d="M-3 0l711 1446h257l286 -1446h-239l-69 363h-527l-178 -363h-241zM503 579h412l-112 630zM527 1567l262 244h167l232 -244h-201l-121 135l-150 -135h-189zM1082 1796l125 233h205l-194 -233h-136z" />
    <glyph glyph-name="uni1EA5" unicode="&#x1ea5;" horiz-adv-x="1098" 
d="M348 -20q-96 0 -166 36.5t-103 105t-19 166.5q25 171 157 258t392 91l146 4l10 70q12 85 -32.5 130t-131.5 44q-70 -1 -136.5 -37t-97.5 -114h-203q21 99 86 171t165 110.5t222 38.5q142 0 226.5 -41t116.5 -115t17 -173l-106 -725h-201l6 181q-71 -116 -157.5 -158.5
t-190.5 -42.5zM449 145q43 0 86.5 16.5t81 45t63 63.5t31.5 73l24 163l-119 -2q-88 -1 -157.5 -20t-112.5 -60.5t-54 -110.5q-11 -79 34 -123.5t123 -44.5zM329 1155l262 244h167l232 -244h-201l-121 135l-150 -135h-189zM884 1384l125 233h205l-194 -233h-136z" />
    <glyph glyph-name="uni1EA6" unicode="&#x1ea6;" horiz-adv-x="1394" 
d="M-3 0l711 1446h257l286 -1446h-239l-69 363h-527l-178 -363h-241zM503 579h412l-112 630zM524 1567l262 244h167l232 -244h-201l-121 135l-150 -135h-189zM1147 1792l-149 233h197l83 -233h-131z" />
    <glyph glyph-name="uni1EA7" unicode="&#x1ea7;" horiz-adv-x="1097" 
d="M348 -20q-96 0 -166 36.5t-103 105t-19 166.5q25 171 157 258t392 91l146 4l10 70q12 85 -32.5 130t-131.5 44q-70 -1 -136.5 -37t-97.5 -114h-203q21 99 86 171t165 110.5t222 38.5q142 0 226.5 -41t116.5 -115t17 -173l-106 -725h-201l6 181q-71 -116 -157.5 -158.5
t-190.5 -42.5zM449 145q43 0 86.5 16.5t81 45t63 63.5t31.5 73l24 163l-119 -2q-88 -1 -157.5 -20t-112.5 -60.5t-54 -110.5q-11 -79 34 -123.5t123 -44.5zM315 1155l262 244h167l232 -244h-201l-121 135l-150 -135h-189zM938 1380l-149 233h197l83 -233h-131z" />
    <glyph glyph-name="uni1EA8" unicode="&#x1ea8;" horiz-adv-x="1394" 
d="M-3 0l711 1446h257l286 -1446h-239l-69 363h-527l-178 -363h-241zM503 579h412l-112 630zM515 1567l262 244h167l232 -244h-201l-121 135l-150 -135h-189zM1111 1717l-46 97q42 27 61.5 61.5t5.5 68.5q-14 31 -52.5 31.5t-78.5 -24.5l-46 96q94 57 174.5 44.5
t112.5 -80.5q38 -80 4 -158t-135 -136z" />
    <glyph glyph-name="uni1EA9" unicode="&#x1ea9;" horiz-adv-x="1112" 
d="M348 -20q-96 0 -166 36.5t-103 105t-19 166.5q25 171 157 258t392 91l146 4l10 70q12 85 -32.5 130t-131.5 44q-70 -1 -136.5 -37t-97.5 -114h-203q21 99 86 171t165 110.5t222 38.5q142 0 226.5 -41t116.5 -115t17 -173l-106 -725h-201l6 181q-71 -116 -157.5 -158.5
t-190.5 -42.5zM449 145q43 0 86.5 16.5t81 45t63 63.5t31.5 73l24 163l-119 -2q-88 -1 -157.5 -20t-112.5 -60.5t-54 -110.5q-11 -79 34 -123.5t123 -44.5zM316 1155l262 244h167l232 -244h-201l-121 135l-150 -135h-189zM912 1305l-46 97q42 27 61.5 61.5t5.5 68.5
q-14 31 -52.5 31.5t-78.5 -24.5l-46 96q94 57 174.5 44.5t112.5 -80.5q38 -80 4 -158t-135 -136z" />
    <glyph glyph-name="uni1EAA" unicode="&#x1eaa;" horiz-adv-x="1394" 
d="M-3 0l711 1446h257l286 -1446h-239l-69 363h-527l-178 -363h-241zM503 579h412l-112 630zM540 1567l262 244h167l232 -244h-201l-121 135l-150 -135h-189zM613 1911l-22 122q40 36 83.5 61t104.5 25q51 0 94.5 -15t84 -29.5t83.5 -14.5q47 0 86.5 20t71.5 43l14 -141
q-31 -22 -80.5 -43.5t-112.5 -21.5q-52 0 -91.5 13.5t-77.5 27t-84 13.5q-49 0 -82 -16t-72 -44z" />
    <glyph glyph-name="uni1EAB" unicode="&#x1eab;" horiz-adv-x="1116" 
d="M348 -20q-96 0 -166 36.5t-103 105t-19 166.5q25 171 157 258t392 91l146 4l10 70q12 85 -32.5 130t-131.5 44q-70 -1 -136.5 -37t-97.5 -114h-203q21 99 86 171t165 110.5t222 38.5q142 0 226.5 -41t116.5 -115t17 -173l-106 -725h-201l6 181q-71 -116 -157.5 -158.5
t-190.5 -42.5zM449 145q43 0 86.5 16.5t81 45t63 63.5t31.5 73l24 163l-119 -2q-88 -1 -157.5 -20t-112.5 -60.5t-54 -110.5q-11 -79 34 -123.5t123 -44.5zM330 1155l262 244h167l232 -244h-201l-121 135l-150 -135h-189zM403 1499l-22 122q40 36 83.5 61t104.5 25
q51 0 94.5 -15t84 -29.5t83.5 -14.5q47 0 86.5 20t71.5 43l14 -141q-31 -22 -80.5 -43.5t-112.5 -21.5q-52 0 -91.5 13.5t-77.5 27t-84 13.5q-49 0 -82 -16t-72 -44z" />
    <glyph glyph-name="uni1EAC" unicode="&#x1eac;" horiz-adv-x="1394" 
d="M-3 0l711 1446h257l286 -1446h-239l-69 363h-527l-178 -363h-241zM503 579h412l-112 630zM455 -380l31 211h231l-31 -211h-231zM524 1567l262 244h167l232 -244h-201l-121 135l-150 -135h-189z" />
    <glyph glyph-name="uni1EAD" unicode="&#x1ead;" horiz-adv-x="1116" 
d="M348 -20q-96 0 -166 36.5t-103 105t-19 166.5q25 171 157 258t392 91l146 4l10 70q12 85 -32.5 130t-131.5 44q-70 -1 -136.5 -37t-97.5 -114h-203q21 99 86 171t165 110.5t222 38.5q142 0 226.5 -41t116.5 -115t17 -173l-106 -725h-201l6 181q-71 -116 -157.5 -158.5
t-190.5 -42.5zM449 145q43 0 86.5 16.5t81 45t63 63.5t31.5 73l24 163l-119 -2q-88 -1 -157.5 -20t-112.5 -60.5t-54 -110.5q-11 -79 34 -123.5t123 -44.5zM297 -380l31 211h231l-31 -211h-231zM315 1155l262 244h167l232 -244h-201l-121 135l-150 -135h-189z" />
    <glyph glyph-name="uni1EAE" unicode="&#x1eae;" horiz-adv-x="1394" 
d="M-3 0l711 1446h257l286 -1446h-239l-69 363h-527l-178 -363h-241zM503 579h412l-112 630zM899 1568q-79 0 -139 29t-97 82.5t-46 125.5h153q11 -25 28 -49.5t46 -41.5t74 -17q65 0 109.5 34t73.5 74h153q-30 -68 -82.5 -121.5t-122 -84.5t-150.5 -31zM865 1871l125 233
h205l-194 -233h-136z" />
    <glyph glyph-name="uni1EAF" unicode="&#x1eaf;" horiz-adv-x="1116" 
d="M348 -20q-96 0 -166 36.5t-103 105t-19 166.5q25 171 157 258t392 91l146 4l10 70q12 85 -32.5 130t-131.5 44q-70 -1 -136.5 -37t-97.5 -114h-203q21 99 86 171t165 110.5t222 38.5q142 0 226.5 -41t116.5 -115t17 -173l-106 -725h-201l6 181q-71 -116 -157.5 -158.5
t-190.5 -42.5zM449 145q43 0 86.5 16.5t81 45t63 63.5t31.5 73l24 163l-119 -2q-88 -1 -157.5 -20t-112.5 -60.5t-54 -110.5q-11 -79 34 -123.5t123 -44.5zM690 1156q-79 0 -139 29t-97 82.5t-46 125.5h153q11 -25 28 -49.5t46 -41.5t74 -17q65 0 109.5 34t73.5 74h153
q-30 -68 -82.5 -121.5t-122 -84.5t-150.5 -31zM656 1459l125 233h205l-194 -233h-136z" />
    <glyph glyph-name="uni1EB0" unicode="&#x1eb0;" horiz-adv-x="1394" 
d="M-3 0l711 1446h257l286 -1446h-239l-69 363h-527l-178 -363h-241zM503 579h412l-112 630zM896 1568q-79 0 -139 29t-97 82.5t-46 125.5h153q11 -25 28 -49.5t46 -41.5t74 -17q65 0 109.5 34t73.5 74h153q-30 -68 -82.5 -121.5t-122 -84.5t-150.5 -31zM868 1871l-149 233
h197l83 -233h-131z" />
    <glyph glyph-name="uni1EB1" unicode="&#x1eb1;" horiz-adv-x="1116" 
d="M348 -20q-96 0 -166 36.5t-103 105t-19 166.5q25 171 157 258t392 91l146 4l10 70q12 85 -32.5 130t-131.5 44q-70 -1 -136.5 -37t-97.5 -114h-203q21 99 86 171t165 110.5t222 38.5q142 0 226.5 -41t116.5 -115t17 -173l-106 -725h-201l6 181q-71 -116 -157.5 -158.5
t-190.5 -42.5zM449 145q43 0 86.5 16.5t81 45t63 63.5t31.5 73l24 163l-119 -2q-88 -1 -157.5 -20t-112.5 -60.5t-54 -110.5q-11 -79 34 -123.5t123 -44.5zM688 1156q-79 0 -139 29t-97 82.5t-46 125.5h153q11 -25 28 -49.5t46 -41.5t74 -17q65 0 109.5 34t73.5 74h153
q-30 -68 -82.5 -121.5t-122 -84.5t-150.5 -31zM660 1459l-149 233h197l83 -233h-131z" />
    <glyph glyph-name="uni1EB2" unicode="&#x1eb2;" horiz-adv-x="1394" 
d="M-3 0l711 1446h257l286 -1446h-239l-69 363h-527l-178 -363h-241zM503 579h412l-112 630zM859 1568q-79 0 -139 29t-97 82.5t-46 125.5h153q11 -25 28 -49.5t46 -41.5t74 -17q65 0 109.5 34t73.5 74h153q-30 -68 -82.5 -121.5t-122 -84.5t-150.5 -31zM906 1768l-46 97
q43 27 62.5 61.5t4.5 68.5q-13 31 -51.5 31.5t-79.5 -24.5l-46 96q77 46 147 46q101 0 140 -82q39 -80 4.5 -158t-135.5 -136z" />
    <glyph glyph-name="uni1EB3" unicode="&#x1eb3;" horiz-adv-x="1116" 
d="M348 -20q-96 0 -166 36.5t-103 105t-19 166.5q25 171 157 258t392 91l146 4l10 70q12 85 -32.5 130t-131.5 44q-70 -1 -136.5 -37t-97.5 -114h-203q21 99 86 171t165 110.5t222 38.5q142 0 226.5 -41t116.5 -115t17 -173l-106 -725h-201l6 181q-71 -116 -157.5 -158.5
t-190.5 -42.5zM449 145q43 0 86.5 16.5t81 45t63 63.5t31.5 73l24 163l-119 -2q-88 -1 -157.5 -20t-112.5 -60.5t-54 -110.5q-11 -79 34 -123.5t123 -44.5zM672 1156q-79 0 -139 29t-97 82.5t-46 125.5h153q11 -25 28 -49.5t46 -41.5t74 -17q65 0 109.5 34t73.5 74h153
q-30 -68 -82.5 -121.5t-122 -84.5t-150.5 -31zM719 1356l-46 97q43 27 62.5 61.5t4.5 68.5q-13 31 -51.5 31.5t-79.5 -24.5l-46 96q77 46 147 46q101 0 140 -82q39 -80 4.5 -158t-135.5 -136z" />
    <glyph glyph-name="uni1EB4" unicode="&#x1eb4;" horiz-adv-x="1394" 
d="M-3 0l711 1446h257l286 -1446h-239l-69 363h-527l-178 -363h-241zM503 579h412l-112 630zM895 1568q-79 0 -139.5 29t-97 82.5t-45.5 125.5h153q10 -25 27.5 -49.5t46.5 -41.5t74 -17q65 0 109 34t73 74h154q-30 -68 -82.5 -121.5t-122 -84.5t-150.5 -31zM628 1914
l-21 123q40 36 83 60.5t105 24.5q50 0 93.5 -14.5t84.5 -29t84 -14.5q47 0 86.5 20t71.5 43l14 -141q-32 -23 -81.5 -44t-112.5 -21q-52 0 -91.5 13.5t-77 27t-84.5 13.5q-48 0 -81.5 -16t-72.5 -45z" />
    <glyph glyph-name="uni1EB5" unicode="&#x1eb5;" horiz-adv-x="1116" 
d="M348 -20q-96 0 -166 36.5t-103 105t-19 166.5q25 171 157 258t392 91l146 4l10 70q12 85 -32.5 130t-131.5 44q-70 -1 -136.5 -37t-97.5 -114h-203q21 99 86 171t165 110.5t222 38.5q142 0 226.5 -41t116.5 -115t17 -173l-106 -725h-201l6 181q-71 -116 -157.5 -158.5
t-190.5 -42.5zM449 145q43 0 86.5 16.5t81 45t63 63.5t31.5 73l24 163l-119 -2q-88 -1 -157.5 -20t-112.5 -60.5t-54 -110.5q-11 -79 34 -123.5t123 -44.5zM683 1156q-79 0 -139.5 29t-97 82.5t-45.5 125.5h153q10 -25 27.5 -49.5t46.5 -41.5t74 -17q65 0 109 34t73 74h154
q-30 -68 -82.5 -121.5t-122 -84.5t-150.5 -31zM416 1502l-21 123q40 36 83 60.5t105 24.5q50 0 93.5 -14.5t84.5 -29t84 -14.5q47 0 86.5 20t71.5 43l14 -141q-32 -23 -81.5 -44t-112.5 -21q-52 0 -91.5 13.5t-77 27t-84.5 13.5q-48 0 -81.5 -16t-72.5 -45z" />
    <glyph glyph-name="uni1EB6" unicode="&#x1eb6;" horiz-adv-x="1394" 
d="M-3 0l711 1446h257l286 -1446h-239l-69 363h-527l-178 -363h-241zM503 579h412l-112 630zM455 -380l31 211h231l-31 -211h-231zM853 1568q-79 0 -139 29t-97 82.5t-46 125.5h153q11 -25 28 -49.5t46 -41.5t74 -17q65 0 109.5 34t73.5 74h153q-30 -68 -82.5 -121.5
t-122 -84.5t-150.5 -31z" />
    <glyph glyph-name="uni1EB7" unicode="&#x1eb7;" horiz-adv-x="1091" 
d="M348 -20q-96 0 -166 36.5t-103 105t-19 166.5q25 171 157 258t392 91l146 4l10 70q12 85 -32.5 130t-131.5 44q-70 -1 -136.5 -37t-97.5 -114h-203q21 99 86 171t165 110.5t222 38.5q142 0 226.5 -41t116.5 -115t17 -173l-106 -725h-201l6 181q-71 -116 -157.5 -158.5
t-190.5 -42.5zM449 145q43 0 86.5 16.5t81 45t63 63.5t31.5 73l24 163l-119 -2q-88 -1 -157.5 -20t-112.5 -60.5t-54 -110.5q-11 -79 34 -123.5t123 -44.5zM297 -380l31 211h231l-31 -211h-231zM643 1154q-79 0 -139 29t-97 82.5t-46 125.5h153q11 -25 28 -49.5t46 -41.5
t74 -17q65 0 109.5 34t73.5 74h153q-30 -68 -82.5 -121.5t-122 -84.5t-150.5 -31z" />
    <glyph glyph-name="uni1EB8" unicode="&#x1eb8;" horiz-adv-x="1231" 
d="M102 0l213 1446h921l-32 -209h-680l-59 -405h599l-30 -206h-600l-61 -414l696 -1l-32 -211h-935zM404 -380l31 211h231l-31 -211h-231z" />
    <glyph glyph-name="uni1EB9" unicode="&#x1eb9;" horiz-adv-x="1109" 
d="M498 -20q-144 0 -244 63.5t-144 181.5t-20 281q23 159 97 282.5t190 194.5t265 71q148 0 239 -65t126 -181.5t12 -272.5l-12 -74h-685q-13 -88 4 -156t66 -106.5t128 -38.5q82 0 147.5 38.5t97.5 117.5h218q-33 -108 -109 -183t-175 -114t-201 -39zM343 612h461
q11 75 -5 135.5t-61.5 96t-122.5 35.5q-76 0 -134 -39t-93 -100.5t-45 -127.5zM326 -380l31 211h231l-31 -211h-231z" />
    <glyph glyph-name="uni1EBA" unicode="&#x1eba;" horiz-adv-x="1231" 
d="M102 0l213 1446h921l-32 -209h-680l-59 -405h599l-30 -206h-600l-61 -414l696 -1l-32 -211h-935zM835 1544l-46 98q43 26 62.5 60.5t4.5 68.5q-13 31 -51.5 31.5t-79.5 -24.5l-46 96q95 57 175 44.5t112 -80.5q39 -80 5 -158t-136 -136z" />
    <glyph glyph-name="uni1EBB" unicode="&#x1ebb;" horiz-adv-x="1109" 
d="M498 -20q-144 0 -244 63.5t-144 181.5t-20 281q23 159 97 282.5t190 194.5t265 71q148 0 239 -65t126 -181.5t12 -272.5l-12 -74h-685q-13 -88 4 -156t66 -106.5t128 -38.5q82 0 147.5 38.5t97.5 117.5h218q-33 -108 -109 -183t-175 -114t-201 -39zM343 612h461
q11 75 -5 135.5t-61.5 96t-122.5 35.5q-76 0 -134 -39t-93 -100.5t-45 -127.5zM720 1132l-46 98q43 26 62.5 60.5t4.5 68.5q-13 31 -51.5 31.5t-79.5 -24.5l-46 96q95 57 175 44.5t112 -80.5q39 -80 5 -158t-136 -136z" />
    <glyph glyph-name="uni1EBC" unicode="&#x1ebc;" horiz-adv-x="1231" 
d="M102 0l213 1446h921l-32 -209h-680l-59 -405h599l-30 -206h-600l-61 -414l696 -1l-32 -211h-935zM510 1620l-21 123q39 36 82.5 60.5t104.5 24.5q51 0 94.5 -14.5t84.5 -29t84 -14.5q46 0 85.5 20t72.5 43l13 -141q-31 -23 -80.5 -44.5t-112.5 -21.5q-52 0 -91.5 14
t-77.5 27.5t-84 13.5q-48 0 -81.5 -16.5t-72.5 -44.5z" />
    <glyph glyph-name="uni1EBD" unicode="&#x1ebd;" horiz-adv-x="1109" 
d="M498 -20q-144 0 -244 63.5t-144 181.5t-20 281q23 159 97 282.5t190 194.5t265 71q148 0 239 -65t126 -181.5t12 -272.5l-12 -74h-685q-13 -88 4 -156t66 -106.5t128 -38.5q82 0 147.5 38.5t97.5 117.5h218q-33 -108 -109 -183t-175 -114t-201 -39zM343 612h461
q11 75 -5 135.5t-61.5 96t-122.5 35.5q-76 0 -134 -39t-93 -100.5t-45 -127.5zM394 1208l-21 123q39 36 82.5 60.5t104.5 24.5q51 0 94.5 -14.5t84.5 -29t84 -14.5q46 0 85.5 20t72.5 43l13 -141q-31 -23 -80.5 -44.5t-112.5 -21.5q-52 0 -91.5 14t-77.5 27.5t-84 13.5
q-48 0 -81.5 -16.5t-72.5 -44.5z" />
    <glyph glyph-name="uni1EBE" unicode="&#x1ebe;" horiz-adv-x="1231" 
d="M102 0l213 1446h921l-32 -209h-680l-59 -405h599l-30 -206h-600l-61 -414l696 -1l-32 -211h-935zM445 1567l262 244h167l232 -244h-201l-121 135l-150 -135h-189zM1000 1796l125 233h205l-194 -233h-136z" />
    <glyph glyph-name="uni1EBF" unicode="&#x1ebf;" horiz-adv-x="1109" 
d="M498 -20q-144 0 -244 63.5t-144 181.5t-20 281q23 159 97 282.5t190 194.5t265 71q148 0 239 -65t126 -181.5t12 -272.5l-12 -74h-685q-13 -88 4 -156t66 -106.5t128 -38.5q82 0 147.5 38.5t97.5 117.5h218q-33 -108 -109 -183t-175 -114t-201 -39zM343 612h461
q11 75 -5 135.5t-61.5 96t-122.5 35.5q-76 0 -134 -39t-93 -100.5t-45 -127.5zM330 1155l262 244h167l232 -244h-201l-121 135l-150 -135h-189zM885 1384l125 233h205l-194 -233h-136z" />
    <glyph glyph-name="uni1EC0" unicode="&#x1ec0;" horiz-adv-x="1231" 
d="M102 0l213 1446h921l-32 -209h-680l-59 -405h599l-30 -206h-600l-61 -414l696 -1l-32 -211h-935zM442 1567l262 244h167l232 -244h-201l-121 135l-150 -135h-189zM1065 1792l-149 233h197l83 -233h-131z" />
    <glyph glyph-name="uni1EC1" unicode="&#x1ec1;" horiz-adv-x="1086" 
d="M498 -20q-144 0 -244 63.5t-144 181.5t-20 281q23 159 97 282.5t190 194.5t265 71q148 0 239 -65t126 -181.5t12 -272.5l-12 -74h-685q-13 -88 4 -156t66 -106.5t128 -38.5q82 0 147.5 38.5t97.5 117.5h218q-33 -108 -109 -183t-175 -114t-201 -39zM343 612h461
q11 75 -5 135.5t-61.5 96t-122.5 35.5q-76 0 -134 -39t-93 -100.5t-45 -127.5zM313 1155l262 244h167l232 -244h-201l-121 135l-150 -135h-189zM936 1380l-149 233h197l83 -233h-131z" />
    <glyph glyph-name="uni1EC2" unicode="&#x1ec2;" horiz-adv-x="1231" 
d="M102 0l213 1446h921l-32 -209h-680l-59 -405h599l-30 -206h-600l-61 -414l696 -1l-32 -211h-935zM433 1567l262 244h167l232 -244h-201l-121 135l-150 -135h-189zM1029 1717l-46 97q42 27 61.5 61.5t5.5 68.5q-14 31 -52.5 31.5t-78.5 -24.5l-46 96q94 57 174.5 44.5
t112.5 -80.5q38 -80 4 -158t-135 -136z" />
    <glyph glyph-name="uni1EC3" unicode="&#x1ec3;" horiz-adv-x="1109" 
d="M498 -20q-144 0 -244 63.5t-144 181.5t-20 281q23 159 97 282.5t190 194.5t265 71q148 0 239 -65t126 -181.5t12 -272.5l-12 -74h-685q-13 -88 4 -156t66 -106.5t128 -38.5q82 0 147.5 38.5t97.5 117.5h218q-33 -108 -109 -183t-175 -114t-201 -39zM343 612h461
q11 75 -5 135.5t-61.5 96t-122.5 35.5q-76 0 -134 -39t-93 -100.5t-45 -127.5zM318 1155l262 244h167l232 -244h-201l-121 135l-150 -135h-189zM914 1305l-46 97q42 27 61.5 61.5t5.5 68.5q-14 31 -52.5 31.5t-78.5 -24.5l-46 96q94 57 174.5 44.5t112.5 -80.5
q38 -80 4 -158t-135 -136z" />
    <glyph glyph-name="uni1EC4" unicode="&#x1ec4;" horiz-adv-x="1231" 
d="M102 0l213 1446h921l-32 -209h-680l-59 -405h599l-30 -206h-600l-61 -414l696 -1l-32 -211h-935zM459 1567l262 244h167l232 -244h-201l-121 135l-150 -135h-189zM532 1911l-22 122q40 36 83.5 61t104.5 25q51 0 94.5 -15t84 -29.5t83.5 -14.5q47 0 86.5 20t71.5 43
l14 -141q-31 -22 -80.5 -43.5t-112.5 -21.5q-52 0 -91.5 13.5t-77.5 27t-84 13.5q-49 0 -82 -16t-72 -44z" />
    <glyph glyph-name="uni1EC5" unicode="&#x1ec5;" horiz-adv-x="1109" 
d="M498 -20q-144 0 -244 63.5t-144 181.5t-20 281q23 159 97 282.5t190 194.5t265 71q148 0 239 -65t126 -181.5t12 -272.5l-12 -74h-685q-13 -88 4 -156t66 -106.5t128 -38.5q82 0 147.5 38.5t97.5 117.5h218q-33 -108 -109 -183t-175 -114t-201 -39zM343 612h461
q11 75 -5 135.5t-61.5 96t-122.5 35.5q-76 0 -134 -39t-93 -100.5t-45 -127.5zM343 1155l262 244h167l232 -244h-201l-121 135l-150 -135h-189zM416 1499l-22 122q40 36 83.5 61t104.5 25q51 0 94.5 -15t84 -29.5t83.5 -14.5q47 0 86.5 20t71.5 43l14 -141
q-31 -22 -80.5 -43.5t-112.5 -21.5q-52 0 -91.5 13.5t-77.5 27t-84 13.5q-49 0 -82 -16t-72 -44z" />
    <glyph glyph-name="uni1EC6" unicode="&#x1ec6;" horiz-adv-x="1231" 
d="M102 0l213 1446h921l-32 -209h-680l-59 -405h599l-30 -206h-600l-61 -414l696 -1l-32 -211h-935zM404 -380l31 211h231l-31 -211h-231zM442 1567l262 244h167l232 -244h-201l-121 135l-150 -135h-189z" />
    <glyph glyph-name="uni1EC7" unicode="&#x1ec7;" horiz-adv-x="1109" 
d="M498 -20q-144 0 -244 63.5t-144 181.5t-20 281q23 159 97 282.5t190 194.5t265 71q148 0 239 -65t126 -181.5t12 -272.5l-12 -74h-685q-13 -88 4 -156t66 -106.5t128 -38.5q82 0 147.5 38.5t97.5 117.5h218q-33 -108 -109 -183t-175 -114t-201 -39zM343 612h461
q11 75 -5 135.5t-61.5 96t-122.5 35.5q-76 0 -134 -39t-93 -100.5t-45 -127.5zM326 -380l31 211h231l-31 -211h-231zM326 1155l262 244h167l232 -244h-201l-121 135l-150 -135h-189z" />
    <glyph glyph-name="uni1EC8" unicode="&#x1ec8;" horiz-adv-x="598" 
d="M103 0l211 1446h240l-211 -1446h-240zM516 1544l-46 98q43 26 62.5 60.5t4.5 68.5q-13 31 -51.5 31.5t-79.5 -24.5l-46 96q95 57 175 44.5t112 -80.5q39 -80 5 -158t-136 -136z" />
    <glyph glyph-name="uni1EC9" unicode="&#x1ec9;" horiz-adv-x="514" 
d="M65 0l152 1034h240l-152 -1034h-240zM422 1132l-46 98q43 26 62.5 60.5t4.5 68.5q-13 31 -51.5 31.5t-79.5 -24.5l-46 96q95 57 175 44.5t112 -80.5q39 -80 5 -158t-136 -136z" />
    <glyph glyph-name="uni1ECA" unicode="&#x1eca;" horiz-adv-x="598" 
d="M103 0l211 1446h240l-211 -1446h-240zM65 -380l31 211h231l-31 -211h-231z" />
    <glyph glyph-name="uni1ECB" unicode="&#x1ecb;" horiz-adv-x="515" 
d="M68 0l146 1034h231l-145 -1034h-232zM237 1216l32 230h237l-32 -230h-237zM15 -380l31 211h231l-31 -211h-231z" />
    <glyph glyph-name="uni1ECC" unicode="&#x1ecc;" horiz-adv-x="1454" 
d="M649 -20q-193 0 -320.5 88t-179 253t-17.5 397q35 235 136.5 402t255 256.5t343.5 89.5t316 -89t178 -256t18 -401q-34 -232 -134 -398t-252.5 -254t-343.5 -88zM680 184q112 0 200.5 55.5t149 173t86.5 304.5q29 190 2.5 310.5t-98.5 177.5t-184 57
q-167 0 -283.5 -130.5t-158.5 -414.5q-27 -187 0 -304.5t100.5 -173t185.5 -55.5zM484 -380l31 211h231l-31 -211h-231z" />
    <glyph glyph-name="uni1ECD" unicode="&#x1ecd;" horiz-adv-x="1108" 
d="M478 -20q-142 0 -239 63.5t-138.5 182.5t-17.5 286q23 162 97 284t189.5 190t262.5 68q143 0 239 -65t136.5 -186t16.5 -291q-23 -157 -95 -276.5t-186 -187.5t-265 -68zM508 165q79 0 137 46t94.5 126t50.5 182q13 95 1 175t-56 128.5t-130 48.5q-82 0 -140.5 -44.5
t-95 -124t-50.5 -183.5q-12 -94 -0.5 -174.5t56.5 -130t133 -49.5zM294 -380l31 211h231l-31 -211h-231z" />
    <glyph glyph-name="uni1ECE" unicode="&#x1ece;" horiz-adv-x="1454" 
d="M649 -20q-193 0 -320.5 88t-179 253t-17.5 397q35 235 136.5 402t255 256.5t343.5 89.5t316 -89t178 -256t18 -401q-34 -232 -134 -398t-252.5 -254t-343.5 -88zM680 184q112 0 200.5 55.5t149 173t86.5 304.5q29 190 2.5 310.5t-98.5 177.5t-184 57
q-167 0 -283.5 -130.5t-158.5 -414.5q-27 -187 0 -304.5t100.5 -173t185.5 -55.5zM934 1544l-46 98q43 26 62.5 60.5t4.5 68.5q-13 31 -51.5 31.5t-79.5 -24.5l-46 96q95 57 175 44.5t112 -80.5q39 -80 5 -158t-136 -136z" />
    <glyph glyph-name="uni1ECF" unicode="&#x1ecf;" horiz-adv-x="1108" 
d="M478 -20q-142 0 -239 63.5t-138.5 182.5t-17.5 286q23 162 97 284t189.5 190t262.5 68q143 0 239 -65t136.5 -186t16.5 -291q-23 -157 -95 -276.5t-186 -187.5t-265 -68zM508 165q79 0 137 46t94.5 126t50.5 182q13 95 1 175t-56 128.5t-130 48.5q-82 0 -140.5 -44.5
t-95 -124t-50.5 -183.5q-12 -94 -0.5 -174.5t56.5 -130t133 -49.5zM693 1132l-46 98q43 26 62.5 60.5t4.5 68.5q-13 31 -51.5 31.5t-79.5 -24.5l-46 96q95 57 175 44.5t112 -80.5q39 -80 5 -158t-136 -136z" />
    <glyph glyph-name="uni1ED0" unicode="&#x1ed0;" horiz-adv-x="1454" 
d="M649 -20q-193 0 -320.5 88t-179 253t-17.5 397q35 235 136.5 402t255 256.5t343.5 89.5t316 -89t178 -256t18 -401q-34 -232 -134 -398t-252.5 -254t-343.5 -88zM680 184q112 0 200.5 55.5t149 173t86.5 304.5q29 190 2.5 310.5t-98.5 177.5t-184 57
q-167 0 -283.5 -130.5t-158.5 -414.5q-27 -187 0 -304.5t100.5 -173t185.5 -55.5zM545 1567l262 244h167l232 -244h-201l-121 135l-150 -135h-189zM1100 1796l125 233h205l-194 -233h-136z" />
    <glyph glyph-name="uni1ED1" unicode="&#x1ed1;" horiz-adv-x="1058" 
d="M478 -20q-142 0 -239 63.5t-138.5 182.5t-17.5 286q23 162 97 284t189.5 190t262.5 68q143 0 239 -65t136.5 -186t16.5 -291q-23 -157 -95 -276.5t-186 -187.5t-265 -68zM508 165q79 0 137 46t94.5 126t50.5 182q13 95 1 175t-56 128.5t-130 48.5q-82 0 -140.5 -44.5
t-95 -124t-50.5 -183.5q-12 -94 -0.5 -174.5t56.5 -130t133 -49.5zM293 1155l262 244h167l232 -244h-201l-121 135l-150 -135h-189zM848 1384l125 233h205l-194 -233h-136z" />
    <glyph glyph-name="uni1ED2" unicode="&#x1ed2;" horiz-adv-x="1454" 
d="M649 -20q-193 0 -320.5 88t-179 253t-17.5 397q35 235 136.5 402t255 256.5t343.5 89.5t316 -89t178 -256t18 -401q-34 -232 -134 -398t-252.5 -254t-343.5 -88zM680 184q112 0 200.5 55.5t149 173t86.5 304.5q29 190 2.5 310.5t-98.5 177.5t-184 57
q-167 0 -283.5 -130.5t-158.5 -414.5q-27 -187 0 -304.5t100.5 -173t185.5 -55.5zM542 1567l262 244h167l232 -244h-201l-121 135l-150 -135h-189zM1165 1792l-149 233h197l83 -233h-131z" />
    <glyph glyph-name="uni1ED3" unicode="&#x1ed3;" horiz-adv-x="1108" 
d="M478 -20q-142 0 -239 63.5t-138.5 182.5t-17.5 286q23 162 97 284t189.5 190t262.5 68q143 0 239 -65t136.5 -186t16.5 -291q-23 -157 -95 -276.5t-186 -187.5t-265 -68zM508 165q79 0 137 46t94.5 126t50.5 182q13 95 1 175t-56 128.5t-130 48.5q-82 0 -140.5 -44.5
t-95 -124t-50.5 -183.5q-12 -94 -0.5 -174.5t56.5 -130t133 -49.5zM301 1155l262 244h167l232 -244h-201l-121 135l-150 -135h-189zM924 1380l-149 233h197l83 -233h-131z" />
    <glyph glyph-name="uni1ED4" unicode="&#x1ed4;" horiz-adv-x="1454" 
d="M649 -20q-193 0 -320.5 88t-179 253t-17.5 397q35 235 136.5 402t255 256.5t343.5 89.5t316 -89t178 -256t18 -401q-34 -232 -134 -398t-252.5 -254t-343.5 -88zM680 184q112 0 200.5 55.5t149 173t86.5 304.5q29 190 2.5 310.5t-98.5 177.5t-184 57
q-167 0 -283.5 -130.5t-158.5 -414.5q-27 -187 0 -304.5t100.5 -173t185.5 -55.5zM532 1567l262 244h167l232 -244h-201l-121 135l-150 -135h-189zM1128 1717l-46 97q42 27 61.5 61.5t5.5 68.5q-14 31 -52.5 31.5t-78.5 -24.5l-46 96q94 57 174.5 44.5t112.5 -80.5
q38 -80 4 -158t-135 -136z" />
    <glyph glyph-name="uni1ED5" unicode="&#x1ed5;" horiz-adv-x="1108" 
d="M478 -20q-142 0 -239 63.5t-138.5 182.5t-17.5 286q23 162 97 284t189.5 190t262.5 68q143 0 239 -65t136.5 -186t16.5 -291q-23 -157 -95 -276.5t-186 -187.5t-265 -68zM508 165q79 0 137 46t94.5 126t50.5 182q13 95 1 175t-56 128.5t-130 48.5q-82 0 -140.5 -44.5
t-95 -124t-50.5 -183.5q-12 -94 -0.5 -174.5t56.5 -130t133 -49.5zM291 1155l262 244h167l232 -244h-201l-121 135l-150 -135h-189zM887 1305l-46 97q42 27 61.5 61.5t5.5 68.5q-14 31 -52.5 31.5t-78.5 -24.5l-46 96q94 57 174.5 44.5t112.5 -80.5q38 -80 4 -158t-135 -136
z" />
    <glyph glyph-name="uni1ED6" unicode="&#x1ed6;" horiz-adv-x="1454" 
d="M649 -20q-193 0 -320.5 88t-179 253t-17.5 397q35 235 136.5 402t255 256.5t343.5 89.5t316 -89t178 -256t18 -401q-34 -232 -134 -398t-252.5 -254t-343.5 -88zM680 184q112 0 200.5 55.5t149 173t86.5 304.5q29 190 2.5 310.5t-98.5 177.5t-184 57
q-167 0 -283.5 -130.5t-158.5 -414.5q-27 -187 0 -304.5t100.5 -173t185.5 -55.5zM558 1567l262 244h167l232 -244h-201l-121 135l-150 -135h-189zM631 1911l-22 122q40 36 83.5 61t104.5 25q51 0 94.5 -15t84 -29.5t83.5 -14.5q47 0 86.5 20t71.5 43l14 -141
q-31 -22 -80.5 -43.5t-112.5 -21.5q-52 0 -91.5 13.5t-77.5 27t-84 13.5q-49 0 -82 -16t-72 -44z" />
    <glyph glyph-name="uni1ED7" unicode="&#x1ed7;" horiz-adv-x="1108" 
d="M478 -20q-142 0 -239 63.5t-138.5 182.5t-17.5 286q23 162 97 284t189.5 190t262.5 68q143 0 239 -65t136.5 -186t16.5 -291q-23 -157 -95 -276.5t-186 -187.5t-265 -68zM508 165q79 0 137 46t94.5 126t50.5 182q13 95 1 175t-56 128.5t-130 48.5q-82 0 -140.5 -44.5
t-95 -124t-50.5 -183.5q-12 -94 -0.5 -174.5t56.5 -130t133 -49.5zM317 1155l262 244h167l232 -244h-201l-121 135l-150 -135h-189zM390 1499l-22 122q40 36 83.5 61t104.5 25q51 0 94.5 -15t84 -29.5t83.5 -14.5q47 0 86.5 20t71.5 43l14 -141q-31 -22 -80.5 -43.5
t-112.5 -21.5q-52 0 -91.5 13.5t-77.5 27t-84 13.5q-49 0 -82 -16t-72 -44z" />
    <glyph glyph-name="uni1ED8" unicode="&#x1ed8;" horiz-adv-x="1454" 
d="M649 -20q-193 0 -320.5 88t-179 253t-17.5 397q35 235 136.5 402t255 256.5t343.5 89.5t316 -89t178 -256t18 -401q-34 -232 -134 -398t-252.5 -254t-343.5 -88zM680 184q112 0 200.5 55.5t149 173t86.5 304.5q29 190 2.5 310.5t-98.5 177.5t-184 57
q-167 0 -283.5 -130.5t-158.5 -414.5q-27 -187 0 -304.5t100.5 -173t185.5 -55.5zM484 -380l31 211h231l-31 -211h-231zM541 1567l262 244h167l232 -244h-201l-121 135l-150 -135h-189z" />
    <glyph glyph-name="uni1ED9" unicode="&#x1ed9;" horiz-adv-x="1108" 
d="M478 -20q-142 0 -239 63.5t-138.5 182.5t-17.5 286q23 162 97 284t189.5 190t262.5 68q143 0 239 -65t136.5 -186t16.5 -291q-23 -157 -95 -276.5t-186 -187.5t-265 -68zM508 165q79 0 137 46t94.5 126t50.5 182q13 95 1 175t-56 128.5t-130 48.5q-82 0 -140.5 -44.5
t-95 -124t-50.5 -183.5q-12 -94 -0.5 -174.5t56.5 -130t133 -49.5zM294 -380l31 211h231l-31 -211h-231zM300 1155l262 244h167l232 -244h-201l-121 135l-150 -135h-189z" />
    <glyph glyph-name="uni1EDA" unicode="&#x1eda;" horiz-adv-x="1585" 
d="M649 -20q-193 0 -320.5 88t-179 253t-17.5 397q35 235 136.5 402t255 256.5t343.5 89.5q139 0 244.5 -48.5t172.5 -139.5q54 -1 90 12t60.5 56.5t43.5 135.5h165q-17 -111 -51 -184.5t-91.5 -111t-147.5 -41.5q30 -85 37 -191.5t-11 -233.5q-34 -232 -134 -398
t-252.5 -254t-343.5 -88zM680 184q112 0 200.5 55.5t149 173t86.5 304.5q29 190 2.5 310.5t-98.5 177.5t-184 57q-167 0 -283.5 -130.5t-158.5 -414.5q-27 -187 0 -304.5t100.5 -173t185.5 -55.5zM769 1567l238 291h260l-317 -291h-181z" />
    <glyph glyph-name="uni1EDB" unicode="&#x1edb;" horiz-adv-x="1224" 
d="M545 1155l238 291h260l-317 -291h-181zM478 -20q-142 0 -239 63.5t-138.5 182.5t-17.5 286q23 162 97 284t189.5 190t262.5 68q107 0 188 -37t132 -106q57 6 90.5 48t56.5 154h165q-24 -155 -81.5 -236.5t-170.5 -96.5q16 -55 19.5 -122t-7.5 -146q-23 -157 -95 -276.5
t-186 -187.5t-265 -68zM508 165q79 0 137 46t94.5 126t50.5 182q13 95 1 175t-56 128.5t-130 48.5q-82 0 -140.5 -44.5t-95 -124t-50.5 -183.5q-12 -94 -0.5 -174.5t56.5 -130t133 -49.5z" />
    <glyph glyph-name="uni1EDC" unicode="&#x1edc;" horiz-adv-x="1585" 
d="M649 -20q-193 0 -320.5 88t-179 253t-17.5 397q35 235 136.5 402t255 256.5t343.5 89.5q139 0 244.5 -48.5t172.5 -139.5q54 -1 90 12t60.5 56.5t43.5 135.5h165q-17 -111 -51 -184.5t-91.5 -111t-147.5 -41.5q30 -85 37 -191.5t-11 -233.5q-34 -232 -134 -398
t-252.5 -254t-343.5 -88zM680 184q112 0 200.5 55.5t149 173t86.5 304.5q29 190 2.5 310.5t-98.5 177.5t-184 57q-167 0 -283.5 -130.5t-158.5 -414.5q-27 -187 0 -304.5t100.5 -173t185.5 -55.5zM780 1567l-284 291h255l205 -291h-176z" />
    <glyph glyph-name="uni1EDD" unicode="&#x1edd;" horiz-adv-x="1248" 
d="M565 1155l-284 291h255l205 -291h-176zM502 -20q-142 0 -239 63.5t-138.5 182.5t-17.5 286q23 162 97 284t189.5 190t262.5 68q107 0 188 -37t132 -106q57 6 90.5 48t56.5 154h165q-24 -155 -81.5 -236.5t-170.5 -96.5q16 -55 19.5 -122t-7.5 -146q-23 -157 -95 -276.5
t-186 -187.5t-265 -68zM532 165q79 0 137 46t94.5 126t50.5 182q13 95 1 175t-56 128.5t-130 48.5q-82 0 -140.5 -44.5t-95 -124t-50.5 -183.5q-12 -94 -0.5 -174.5t56.5 -130t133 -49.5z" />
    <glyph glyph-name="uni1EDE" unicode="&#x1ede;" horiz-adv-x="1585" 
d="M649 -20q-193 0 -320.5 88t-179 253t-17.5 397q35 235 136.5 402t255 256.5t343.5 89.5q139 0 244.5 -48.5t172.5 -139.5q54 -1 90 12t60.5 56.5t43.5 135.5h165q-17 -111 -51 -184.5t-91.5 -111t-147.5 -41.5q30 -85 37 -191.5t-11 -233.5q-34 -232 -134 -398
t-252.5 -254t-343.5 -88zM680 184q112 0 200.5 55.5t149 173t86.5 304.5q29 190 2.5 310.5t-98.5 177.5t-184 57q-167 0 -283.5 -130.5t-158.5 -414.5q-27 -187 0 -304.5t100.5 -173t185.5 -55.5zM934 1544l-46 98q43 26 62.5 60.5t4.5 68.5q-13 31 -51.5 31.5t-79.5 -24.5
l-46 96q95 57 175 44.5t112 -80.5q39 -80 5 -158t-136 -136z" />
    <glyph glyph-name="uni1EDF" unicode="&#x1edf;" horiz-adv-x="1224" 
d="M700 1132l-46 98q43 26 62.5 60.5t4.5 68.5q-13 31 -51.5 31.5t-79.5 -24.5l-46 96q95 57 175 44.5t112 -80.5q39 -80 5 -158t-136 -136zM478 -20q-142 0 -239 63.5t-138.5 182.5t-17.5 286q23 162 97 284t189.5 190t262.5 68q107 0 188 -37t132 -106q57 6 90.5 48
t56.5 154h165q-24 -155 -81.5 -236.5t-170.5 -96.5q16 -55 19.5 -122t-7.5 -146q-23 -157 -95 -276.5t-186 -187.5t-265 -68zM508 165q79 0 137 46t94.5 126t50.5 182q13 95 1 175t-56 128.5t-130 48.5q-82 0 -140.5 -44.5t-95 -124t-50.5 -183.5q-12 -94 -0.5 -174.5
t56.5 -130t133 -49.5z" />
    <glyph glyph-name="uni1EE0" unicode="&#x1ee0;" horiz-adv-x="1585" 
d="M649 -20q-193 0 -320.5 88t-179 253t-17.5 397q35 235 136.5 402t255 256.5t343.5 89.5q139 0 244.5 -48.5t172.5 -139.5q54 -1 90 12t60.5 56.5t43.5 135.5h165q-17 -111 -51 -184.5t-91.5 -111t-147.5 -41.5q30 -85 37 -191.5t-11 -233.5q-34 -232 -134 -398
t-252.5 -254t-343.5 -88zM680 184q112 0 200.5 55.5t149 173t86.5 304.5q29 190 2.5 310.5t-98.5 177.5t-184 57q-167 0 -283.5 -130.5t-158.5 -414.5q-27 -187 0 -304.5t100.5 -173t185.5 -55.5zM609 1620l-21 123q39 36 82.5 60.5t104.5 24.5q51 0 94.5 -14.5t84.5 -29
t84 -14.5q46 0 85.5 20t72.5 43l13 -141q-31 -23 -80.5 -44.5t-112.5 -21.5q-52 0 -91.5 14t-77.5 27.5t-84 13.5q-48 0 -81.5 -16.5t-72.5 -44.5z" />
    <glyph glyph-name="uni1EE1" unicode="&#x1ee1;" horiz-adv-x="1224" 
d="M376 1208l-21 123q39 36 82.5 60.5t104.5 24.5q51 0 94.5 -14.5t84.5 -29t84 -14.5q46 0 85.5 20t72.5 43l13 -141q-31 -23 -80.5 -44.5t-112.5 -21.5q-52 0 -91.5 14t-77.5 27.5t-84 13.5q-48 0 -81.5 -16.5t-72.5 -44.5zM478 -20q-142 0 -239 63.5t-138.5 182.5
t-17.5 286q23 162 97 284t189.5 190t262.5 68q107 0 188 -37t132 -106q57 6 90.5 48t56.5 154h165q-24 -155 -81.5 -236.5t-170.5 -96.5q16 -55 19.5 -122t-7.5 -146q-23 -157 -95 -276.5t-186 -187.5t-265 -68zM508 165q79 0 137 46t94.5 126t50.5 182q13 95 1 175
t-56 128.5t-130 48.5q-82 0 -140.5 -44.5t-95 -124t-50.5 -183.5q-12 -94 -0.5 -174.5t56.5 -130t133 -49.5z" />
    <glyph glyph-name="uni1EE2" unicode="&#x1ee2;" horiz-adv-x="1585" 
d="M649 -20q-193 0 -320.5 88t-179 253t-17.5 397q35 235 136.5 402t255 256.5t343.5 89.5q139 0 244.5 -48.5t172.5 -139.5q54 -1 90 12t60.5 56.5t43.5 135.5h165q-17 -111 -51 -184.5t-91.5 -111t-147.5 -41.5q30 -85 37 -191.5t-11 -233.5q-34 -232 -134 -398
t-252.5 -254t-343.5 -88zM680 184q112 0 200.5 55.5t149 173t86.5 304.5q29 190 2.5 310.5t-98.5 177.5t-184 57q-167 0 -283.5 -130.5t-158.5 -414.5q-27 -187 0 -304.5t100.5 -173t185.5 -55.5zM484 -380l31 211h231l-31 -211h-231z" />
    <glyph glyph-name="uni1EE3" unicode="&#x1ee3;" horiz-adv-x="1224" 
d="M286 -380l31 211h231l-31 -211h-231zM478 -20q-142 0 -239 63.5t-138.5 182.5t-17.5 286q23 162 97 284t189.5 190t262.5 68q107 0 188 -37t132 -106q57 6 90.5 48t56.5 154h165q-24 -155 -81.5 -236.5t-170.5 -96.5q16 -55 19.5 -122t-7.5 -146q-23 -157 -95 -276.5
t-186 -187.5t-265 -68zM508 165q79 0 137 46t94.5 126t50.5 182q13 95 1 175t-56 128.5t-130 48.5q-82 0 -140.5 -44.5t-95 -124t-50.5 -183.5q-12 -94 -0.5 -174.5t56.5 -130t133 -49.5z" />
    <glyph glyph-name="uni1EE4" unicode="&#x1ee4;" horiz-adv-x="1391" 
d="M632 -20q-194 0 -302 66.5t-143 192t-9 303.5l132 904h245l-135 -929q-17 -112 8 -184.5t85 -108t150 -35.5q134 0 226 79.5t116 248.5l135 929h241l-133 -918q-25 -172 -97 -294.5t-199.5 -188t-319.5 -65.5zM463 -378l31 211h231l-31 -211h-231z" />
    <glyph glyph-name="uni1EE5" unicode="&#x1ee5;" horiz-adv-x="1151" 
d="M429 -20q-72 0 -137 22.5t-113 66t-71 107.5t-11 149l99 709h241l-96 -681q-12 -84 32 -138t145 -54q94 0 157 51.5t77 148.5l95 673h238l-145 -1034h-184l1 202q-29 -85 -82.5 -133.5t-117.5 -68.5t-128 -20zM321 -380l31 211h231l-31 -211h-231z" />
    <glyph glyph-name="uni1EE6" unicode="&#x1ee6;" horiz-adv-x="1391" 
d="M632 -20q-194 0 -302 66.5t-143 192t-9 303.5l132 904h245l-135 -929q-17 -112 8 -184.5t85 -108t150 -35.5q134 0 226 79.5t116 248.5l135 929h241l-133 -918q-25 -172 -97 -294.5t-199.5 -188t-319.5 -65.5zM926 1544l-46 98q43 26 62.5 60.5t4.5 68.5
q-13 31 -51.5 31.5t-79.5 -24.5l-46 96q95 57 175 44.5t112 -80.5q39 -80 5 -158t-136 -136z" />
    <glyph glyph-name="uni1EE7" unicode="&#x1ee7;" horiz-adv-x="1151" 
d="M429 -20q-72 0 -137 22.5t-113 66t-71 107.5t-11 149l99 709h241l-96 -681q-12 -84 32 -138t145 -54q94 0 157 51.5t77 148.5l95 673h238l-145 -1034h-184l1 202q-29 -85 -82.5 -133.5t-117.5 -68.5t-128 -20zM721 1132l-46 98q43 26 62.5 60.5t4.5 68.5
q-13 31 -51.5 31.5t-79.5 -24.5l-46 96q95 57 175 44.5t112 -80.5q39 -80 5 -158t-136 -136z" />
    <glyph glyph-name="uni1EE8" unicode="&#x1ee8;" horiz-adv-x="1627" 
d="M1285 1149l19 129q46 -1 80 3.5t58 24t42 61t34 114.5h165q-21 -131 -64.5 -209t-123.5 -108t-210 -15zM632 -20q-194 0 -302 66.5t-143 192t-9 303.5l132 904h245l-135 -929q-17 -112 8 -184.5t85 -108t150 -35.5q134 0 226 79.5t116 248.5l135 929h241l-133 -918
q-25 -172 -97 -294.5t-199.5 -188t-319.5 -65.5zM767 1567l239 291h259l-317 -291h-181z" />
    <glyph glyph-name="uni1EE9" unicode="&#x1ee9;" horiz-adv-x="1321" 
d="M996 781l19 128q46 -1 79.5 4t58 24.5t42.5 61t33 114.5h165q-20 -131 -64 -209.5t-124 -108t-209 -14.5zM430 -20q-72 0 -137 22.5t-113.5 66t-71.5 107.5t-11 149l99 709h242l-96 -681q-12 -84 31.5 -138t145.5 -54q93 0 156.5 51.5t76.5 148.5l95 673h239l-146 -1034
h-183l1 202q-30 -85 -83 -133.5t-117 -68.5t-128 -20zM564 1155l238 291h260l-317 -291h-181z" />
    <glyph glyph-name="uni1EEA" unicode="&#x1eea;" horiz-adv-x="1627" 
d="M1285 1149l19 129q46 -1 80 3.5t58 24t42 61t34 114.5h165q-21 -131 -64.5 -209t-123.5 -108t-210 -15zM632 -20q-194 0 -302 66.5t-143 192t-9 303.5l132 904h245l-135 -929q-17 -112 8 -184.5t85 -108t150 -35.5q134 0 226 79.5t116 248.5l135 929h241l-133 -918
q-25 -172 -97 -294.5t-199.5 -188t-319.5 -65.5zM768 1567l-284 291h255l205 -291h-176z" />
    <glyph glyph-name="uni1EEB" unicode="&#x1eeb;" horiz-adv-x="1343" 
d="M587 1155l-284 291h255l205 -291h-176zM445 -20q-72 0 -137 22.5t-113.5 66t-71.5 107.5t-11 149l99 709h242l-96 -681q-12 -84 31.5 -138t145.5 -54q93 0 156.5 51.5t76.5 148.5l95 673h239l-18 -125q45 1 76 17.5t52.5 60t38.5 126.5h165q-19 -122 -58.5 -199
t-109.5 -110.5t-182 -27.5l-110 -776h-183l1 202q-30 -85 -83 -133.5t-117 -68.5t-128 -20z" />
    <glyph glyph-name="uni1EEC" unicode="&#x1eec;" horiz-adv-x="1627" 
d="M1285 1149l19 129q46 -1 80 3.5t58 24t42 61t34 114.5h165q-21 -131 -64.5 -209t-123.5 -108t-210 -15zM632 -20q-194 0 -302 66.5t-143 192t-9 303.5l132 904h245l-135 -929q-17 -112 8 -184.5t85 -108t150 -35.5q134 0 226 79.5t116 248.5l135 929h241l-133 -918
q-25 -172 -97 -294.5t-199.5 -188t-319.5 -65.5zM922 1545l-46 97q43 26 62.5 60.5t4.5 68.5q-13 31 -51.5 32t-79.5 -25l-46 96q94 57 174.5 44.5t112.5 -79.5q39 -81 4.5 -159t-135.5 -135z" />
    <glyph glyph-name="uni1EED" unicode="&#x1eed;" horiz-adv-x="1328" 
d="M732 1132l-46 98q43 26 62.5 60.5t4.5 68.5q-13 31 -51.5 31.5t-79.5 -24.5l-46 96q95 57 175 44.5t112 -80.5q39 -80 5 -158t-136 -136zM430 -20q-72 0 -137 22.5t-113.5 66t-71.5 107.5t-11 149l99 709h242l-96 -681q-12 -84 31.5 -138t145.5 -54q93 0 156.5 51.5
t76.5 148.5l95 673h239l-18 -125q45 1 76 17.5t52.5 60t38.5 126.5h165q-19 -122 -58.5 -199t-109.5 -110.5t-182 -27.5l-110 -776h-183l1 202q-30 -85 -83 -133.5t-117 -68.5t-128 -20z" />
    <glyph glyph-name="uni1EEE" unicode="&#x1eee;" horiz-adv-x="1621" 
d="M1285 1149l19 129q46 -1 80 3.5t58 24t42 61t34 114.5h165q-21 -131 -64.5 -209t-123.5 -108t-210 -15zM632 -20q-194 0 -302 66.5t-143 192t-9 303.5l132 904h245l-135 -929q-17 -112 8 -184.5t85 -108t150 -35.5q134 0 226 79.5t116 248.5l135 929h241l-133 -918
q-25 -172 -97 -294.5t-199.5 -188t-319.5 -65.5zM598 1620l-21 123q40 36 83 60.5t105 24.5q50 0 93.5 -14.5t84.5 -29t84 -14.5q47 0 86.5 20t71.5 43l14 -141q-31 -23 -80.5 -44.5t-112.5 -21.5q-53 0 -92.5 14t-77 27.5t-84.5 13.5q-48 0 -81.5 -16.5t-72.5 -44.5z" />
    <glyph glyph-name="uni1EEF" unicode="&#x1eef;" horiz-adv-x="1328" 
d="M406 1208l-21 123q39 36 82.5 60.5t104.5 24.5q51 0 94.5 -14.5t84.5 -29t84 -14.5q46 0 85.5 20t72.5 43l13 -141q-31 -23 -80.5 -44.5t-112.5 -21.5q-52 0 -91.5 14t-77.5 27.5t-84 13.5q-48 0 -81.5 -16.5t-72.5 -44.5zM430 -20q-72 0 -137 22.5t-113.5 66
t-71.5 107.5t-11 149l99 709h242l-96 -681q-12 -84 31.5 -138t145.5 -54q93 0 156.5 51.5t76.5 148.5l95 673h239l-18 -125q45 1 76 17.5t52.5 60t38.5 126.5h165q-19 -122 -58.5 -199t-109.5 -110.5t-182 -27.5l-110 -776h-183l1 202q-30 -85 -83 -133.5t-117 -68.5
t-128 -20z" />
    <glyph glyph-name="uni1EF0" unicode="&#x1ef0;" horiz-adv-x="1627" 
d="M1285 1149l19 129q46 -1 80 3.5t58 24t42 61t34 114.5h165q-21 -131 -64.5 -209t-123.5 -108t-210 -15zM632 -20q-194 0 -302 66.5t-143 192t-9 303.5l132 904h245l-135 -929q-17 -112 8 -184.5t85 -108t150 -35.5q134 0 226 79.5t116 248.5l135 929h241l-133 -918
q-25 -172 -97 -294.5t-199.5 -188t-319.5 -65.5zM448 -378l31 211h232l-31 -211h-232z" />
    <glyph glyph-name="uni1EF1" unicode="&#x1ef1;" horiz-adv-x="1328" 
d="M322 -380l31 211h231l-31 -211h-231zM430 -20q-72 0 -137 22.5t-113.5 66t-71.5 107.5t-11 149l99 709h242l-96 -681q-12 -84 31.5 -138t145.5 -54q93 0 156.5 51.5t76.5 148.5l95 673h239l-18 -125q45 1 76 17.5t52.5 60t38.5 126.5h165q-19 -122 -58.5 -199
t-109.5 -110.5t-182 -27.5l-110 -776h-183l1 202q-30 -85 -83 -133.5t-117 -68.5t-128 -20z" />
    <glyph glyph-name="Ygrave" unicode="&#x1ef2;" horiz-adv-x="1237" 
d="M419 0l88 612l-354 834h259l248 -622l424 622h263l-600 -835l-90 -611h-238zM664 1569l-284 291h255l205 -291h-176z" />
    <glyph glyph-name="ygrave" unicode="&#x1ef3;" horiz-adv-x="1064" 
d="M139 -330q-95 0 -131.5 15.5l-36.5 15.5l23 156l100 -3q81 -5 125 13.5t64.5 45t30.5 46.5l36 76l-241 999h239l153 -731l366 731h234l-563 -1072q-65 -117 -128.5 -180.5t-130 -87.5t-140.5 -24zM526 1155l-284 291h255l205 -291h-176z" />
    <glyph glyph-name="uni1EF4" unicode="&#x1ef4;" horiz-adv-x="1237" 
d="M419 0l88 612l-354 834h259l248 -622l424 622h263l-600 -835l-90 -611h-238zM369 -380l31 211h231l-31 -211h-231z" />
    <glyph glyph-name="uni1EF5" unicode="&#x1ef5;" horiz-adv-x="1064" 
d="M139 -330q-95 0 -131.5 15.5l-36.5 15.5l23 156l100 -3q81 -5 125 13.5t64.5 45t30.5 46.5l36 76l-241 999h239l153 -731l366 731h234l-563 -1072q-65 -117 -128.5 -180.5t-130 -87.5t-140.5 -24zM588 -353l31 211h231l-31 -211h-231z" />
    <glyph glyph-name="uni1EF6" unicode="&#x1ef6;" horiz-adv-x="1237" 
d="M419 0l88 612l-354 834h259l248 -622l424 622h263l-600 -835l-90 -611h-238zM819 1546l-46 98q43 26 62.5 60.5t4.5 68.5q-13 31 -51.5 31.5t-79.5 -24.5l-46 96q95 57 175 44.5t112 -80.5q39 -80 5 -158t-136 -136z" />
    <glyph glyph-name="uni1EF7" unicode="&#x1ef7;" horiz-adv-x="1064" 
d="M139 -330q-95 0 -131.5 15.5l-36.5 15.5l23 156l100 -3q81 -5 125 13.5t64.5 45t30.5 46.5l36 76l-241 999h239l153 -731l366 731h234l-563 -1072q-65 -117 -128.5 -180.5t-130 -87.5t-140.5 -24zM681 1132l-46 98q43 26 62.5 60.5t4.5 68.5q-13 31 -51.5 31.5
t-79.5 -24.5l-46 96q95 57 175 44.5t112 -80.5q39 -80 5 -158t-136 -136z" />
    <glyph glyph-name="uni1EF8" unicode="&#x1ef8;" horiz-adv-x="1237" 
d="M419 0l88 612l-354 834h259l248 -622l424 622h263l-600 -835l-90 -611h-238zM494 1622l-21 123q39 36 82.5 60.5t104.5 24.5q51 0 94.5 -14.5t84.5 -29t84 -14.5q46 0 85.5 20t72.5 43l13 -141q-31 -23 -80.5 -44.5t-112.5 -21.5q-52 0 -91.5 14t-77.5 27.5t-84 13.5
q-48 0 -81.5 -16.5t-72.5 -44.5z" />
    <glyph glyph-name="uni1EF9" unicode="&#x1ef9;" horiz-adv-x="1064" 
d="M139 -330q-95 0 -131.5 15.5l-36.5 15.5l23 156l100 -3q81 -5 125 13.5t64.5 45t30.5 46.5l36 76l-241 999h239l153 -731l366 731h234l-563 -1072q-65 -117 -128.5 -180.5t-130 -87.5t-140.5 -24zM355 1208l-21 123q39 36 82.5 60.5t104.5 24.5q51 0 94.5 -14.5t84.5 -29
t84 -14.5q46 0 85.5 20t72.5 43l13 -141q-31 -23 -80.5 -44.5t-112.5 -21.5q-52 0 -91.5 14t-77.5 27.5t-84 13.5q-48 0 -81.5 -16.5t-72.5 -44.5z" />
    <glyph glyph-name="endash" unicode="&#x2013;" horiz-adv-x="1120" 
d="M107 408l27 182l874 1l-27 -182z" />
    <glyph glyph-name="emdash" unicode="&#x2014;" horiz-adv-x="2269" 
d="M350 408l25 182l1539 1l-26 -182z" />
    <glyph glyph-name="quoteleft" unicode="&#x2018;" horiz-adv-x="506" 
d="M150 949l34 224l230 301h97l-151 -263l93 -7l-38 -255h-265z" />
    <glyph glyph-name="quoteright" unicode="&#x2019;" horiz-adv-x="498" 
d="M157 925l151 261l-93 7l38 253h265l-33 -222l-230 -299h-98z" />
    <glyph glyph-name="quotesinglbase" unicode="&#x201a;" horiz-adv-x="533" 
d="M-19 -264l152 260l-96 7l38 255h276l-33 -223l-236 -299h-101z" />
    <glyph glyph-name="quotedblleft" unicode="&#x201c;" horiz-adv-x="909" 
d="M554 953l33 224l230 302h98l-151 -264l93 -8l-38 -254h-265zM151 953l33 224l230 302h98l-151 -264l93 -8l-38 -254h-265z" />
    <glyph glyph-name="quotedblright" unicode="&#x201d;" horiz-adv-x="894" 
d="M553 925l151 261l-93 7l38 253h265l-33 -222l-230 -299h-98zM157 925l151 261l-93 7l38 253h265l-33 -222l-230 -299h-98z" />
    <glyph glyph-name="quotedblbase" unicode="&#x201e;" horiz-adv-x="942" 
d="M390 -264l152 260l-96 7l38 255h276l-33 -223l-236 -299h-101zM-19 -264l152 260l-96 7l38 255h276l-33 -223l-236 -299h-101z" />
    <glyph glyph-name="dagger" unicode="&#x2020;" horiz-adv-x="953" 
d="M230 -322l207 1109l-356 -36l32 218l337 -32l36 509h239l-114 -509l347 32l-33 -218l-346 36l-114 -1109h-235z" />
    <glyph glyph-name="daggerdbl" unicode="&#x2021;" horiz-adv-x="957" 
d="M232 -322l110 489l-348 -33l33 219l343 -36l65 447l-353 -34l31 216l338 -31l40 531h237l-116 -531l346 31l-32 -216l-343 34l-65 -447l354 36l-33 -219l-338 33l-31 -489h-238z" />
    <glyph glyph-name="bullet" unicode="&#x2022;" horiz-adv-x="678" 
d="M362 509q-63 0 -114 30.5t-81.5 82.5t-30.5 114t30.5 113t81.5 81.5t114 30.5q62 0 113.5 -30.5t81.5 -81.5t30 -113t-30 -114t-81.5 -82.5t-113.5 -30.5z" />
    <glyph glyph-name="ellipsis" unicode="&#x2026;" horiz-adv-x="1670" 
d="M1206 0l42 280h268l-42 -280h-268zM31 0l42 280h268l-42 -280h-268zM619 0l42 280h268l-42 -280h-268z" />
    <glyph glyph-name="perthousand" unicode="&#x2030;" horiz-adv-x="2466" 
d="M369 -8l-145 2l1152 1468h142zM445 645q-83 0 -145.5 42.5t-97 116t-34.5 169.5q0 70 23.5 155t71.5 162.5t122 127.5t175 50q82 0 143 -42.5t95.5 -117t34.5 -171.5q0 -80 -25.5 -166t-75 -160t-121.5 -120t-166 -46zM460 774q59 0 99 40.5t63.5 102t34 126t10.5 111.5
q0 87 -29.5 137t-97.5 50q-57 0 -96.5 -41t-64 -103t-35.5 -126.5t-11 -110.5q0 -86 29.5 -136t97.5 -50zM1205 -20q-83 0 -145 42t-96.5 115.5t-34.5 169.5q0 82 26.5 169t77 161t123 120.5t164.5 46.5q82 0 143.5 -43t96 -117t34.5 -171q0 -80 -25.5 -166t-75 -160.5
t-122 -120.5t-166.5 -46zM1220 109q60 0 99.5 40.5t63 102t34 125.5t10.5 111q0 87 -29.5 137.5t-97.5 50.5q-56 0 -95.5 -41.5t-64 -103.5t-35 -126.5t-10.5 -109.5q0 -86 29 -136t96 -50zM1956 -20q-83 0 -145 42t-96.5 115.5t-34.5 169.5q0 82 26 168.5t76.5 161
t123.5 121t165 46.5q83 0 144 -43t95 -117t34 -171q0 -79 -25.5 -165.5t-75 -161t-121.5 -120.5t-166 -46zM1972 109q59 0 98.5 41t62.5 102.5t33.5 126t10.5 111.5q0 86 -29 136t-97 50q-57 0 -96 -41t-63.5 -103t-35 -126t-10.5 -110q0 -86 29 -136.5t97 -50.5z" />
    <glyph glyph-name="guilsinglleft" unicode="&#x2039;" horiz-adv-x="578" 
d="M272 134l-182 368l293 384h130l-227 -384l116 -368h-130z" />
    <glyph glyph-name="guilsinglright" unicode="&#x203a;" horiz-adv-x="577" 
d="M65 134l223 368l-114 384h129l180 -384l-291 -368h-127z" />
    <glyph glyph-name="fraction" unicode="&#x2044;" horiz-adv-x="435" 
d="M-253 -8l-145 2l1152 1468h143z" />
    <glyph glyph-name="uni2070" unicode="&#x2070;" horiz-adv-x="759" 
d="M385 752q-153 0 -224 119t-38 347q32 230 137.5 350t256.5 120q152 0 223 -119.5t39 -349.5q-33 -228 -137 -347.5t-257 -119.5zM403 880q86 0 138 78.5t77 259.5q26 185 -4.5 266t-114.5 81q-83 0 -137.5 -81.5t-80.5 -265.5q-25 -180 6.5 -259t115.5 -79z" />
    <glyph glyph-name="uni2074" unicode="&#x2074;" horiz-adv-x="777" 
d="M452 760l32 216h-405l19 130l483 564h150l-82 -564h138l-19 -130h-139l-32 -216h-145zM239 1106h264l54 373z" />
    <glyph glyph-name="uni2075" unicode="&#x2075;" horiz-adv-x="794" 
d="M416 746q-127 0 -215 62.5t-113 160.5l132 66q24 -71 71 -117t129 -46q85 0 143 49t69 131q11 77 -33.5 126t-122.5 49q-45 0 -85.5 -13.5t-93.5 -59.5q-7 -2 -9.5 -2t-9.5 3l-108 48l105 467h549l-24 -129h-420l-55 -252q52 34 101 49.5t105 15.5q85 0 148.5 -34.5
t95 -100.5t17.5 -162q-19 -142 -121.5 -226.5t-254.5 -84.5z" />
    <glyph glyph-name="uni2076" unicode="&#x2076;" horiz-adv-x="775" 
d="M409 756q-164 0 -240.5 122t-47.5 331q31 223 143.5 353t283.5 130q78 0 140.5 -30t97.5 -85.5t30 -134.5h-139q-8 60 -44.5 93.5t-99.5 33.5q-103 0 -167 -90.5t-74 -250.5q36 56 97.5 89t129.5 33q133 0 203 -76.5t52 -206.5q-12 -90 -62.5 -160t-128.5 -110.5
t-174 -40.5zM421 877q70 0 125 51t66 132q12 84 -27 128t-114 44q-42 0 -83.5 -20t-70 -52t-34.5 -68q-14 -98 24.5 -156.5t113.5 -58.5z" />
    <glyph glyph-name="uni2077" unicode="&#x2077;" horiz-adv-x="705" 
d="M202 760q21 78 75.5 206t143.5 279t213 296h-475l18 129h637l-20 -129q-65 -74 -133.5 -176.5t-130 -213.5t-106 -213.5t-59.5 -177.5h-163z" />
    <glyph glyph-name="uni2078" unicode="&#x2078;" horiz-adv-x="815" 
d="M413 755q-156 0 -240.5 71.5t-68.5 191.5q8 53 40 100.5t76 80t87 41.5q-53 26 -84.5 75.5t-21.5 122.5q18 121 115.5 186.5t228.5 65.5t210 -65.5t62 -186.5q-10 -73 -55 -122.5t-105 -75.5q41 -9 75.5 -41.5t53 -80t11.5 -100.5q-17 -120 -122 -191.5t-262 -71.5z
M430 873q86 0 141 40t65 108q9 67 -34.5 109.5t-129.5 42.5q-84 0 -140 -42.5t-66 -109.5q-9 -68 35.5 -108t128.5 -40zM490 1301q68 0 117 37.5t58 102.5q9 66 -29 104t-107 38q-66 0 -115.5 -38.5t-58.5 -103.5q-10 -65 29 -102.5t106 -37.5z" />
    <glyph glyph-name="uni2079" unicode="&#x2079;" horiz-adv-x="744" 
d="M369 756q-79 0 -142.5 31t-99 87.5t-32.5 133.5h145q5 -58 41.5 -93.5t98.5 -35.5q103 0 175.5 82.5t87.5 265.5q-32 -61 -94 -97.5t-140 -36.5q-132 0 -205 77.5t-55 212.5q13 90 62 159.5t126.5 109.5t174.5 40q162 0 239 -121t47 -330q-34 -237 -146.5 -361
t-282.5 -124zM449 1218q43 0 84 20t70 52t34 68q14 98 -24 156.5t-114 58.5q-69 0 -121.5 -50.5t-63.5 -132.5q-12 -80 24.5 -126t110.5 -46z" />
    <glyph glyph-name="colonmonetary" unicode="&#x20a1;" horiz-adv-x="1376" 
d="M642 -20q-179 0 -298.5 80.5t-174.5 231t-40 361.5q11 171 62.5 319t142.5 259t221 173t298 62q151 0 259.5 -62t166 -171.5t55.5 -250.5h-252q-3 80 -33.5 143t-88 100t-145.5 37q-103 0 -178.5 -49t-127 -134.5t-80.5 -197t-39 -239.5q-21 -236 51 -347t224 -111
q88 0 156.5 40.5t116.5 108t73 147.5h253q-25 -98 -74.5 -188t-124.5 -160.5t-180 -111t-243 -40.5zM415 -122l320 1682h116l-320 -1682h-116zM640 -122l320 1682h116l-320 -1682h-116z" />
    <glyph glyph-name="franc" unicode="&#x20a3;" horiz-adv-x="1197" 
d="M71 0l212 1446h957l-33 -205h-683l-63 -431h535l-30 -201h-534l-88 -609h-273zM-65 250l21 140l741 1l-21 -140z" />
    <glyph glyph-name="lira" unicode="&#x20a4;" horiz-adv-x="1224" 
d="M-37 0l31 205h68q64 -1 117 49t76 158q4 14 7 31t6 38q0 13 -15 13h-202l21 139h199v154h-177l20 140h157l3 70q4 168 73.5 271t179 150.5t232.5 47.5q86 0 166.5 -31t139.5 -90t81 -143l-220 -69q-16 58 -52 96t-111 38q-78 0 -138 -50.5t-74 -142.5q-2 -20 -2.5 -53.5
t-0.5 -73.5q0 -20 18 -20l274 1l-20 -140l-272 -1l-1 -154l252 1l-22 -139h-253q-10 -50 -31 -103t-53 -101t-74 -84h294q89 0 149.5 36t102.5 124l195 -48q-66 -156 -186.5 -237.5t-276.5 -81.5h-681z" />
    <glyph glyph-name="uni20A6" unicode="&#x20a6;" horiz-adv-x="1633" 
d="M70 0l416 1446h231l349 -1033l292 1033h237l-417 -1446h-211l-359 1061l-302 -1061h-236zM11 483l18 128l1599 1l-19 -128zM69 878l19 128l1599 1l-20 -128z" />
    <glyph glyph-name="uni20A9" unicode="&#x20a9;" horiz-adv-x="2108" 
d="M387 0l25 1446h233l-31 -1044l560 1044h173l-26 -1044l560 1044h231l-807 -1446h-195l26 1025l-558 -1025h-191zM51 700l21 139l2044 1l-19 -139zM98 1002l21 139l2046 1l-21 -139z" />
    <glyph glyph-name="dong" unicode="&#x20ab;" horiz-adv-x="1016" 
d="M369 248q-94 0 -162 48t-97 144t-8 239q20 136 81 237t147.5 157t184.5 56q69 0 113.5 -23.5t79.5 -63.5q12 -11 18.5 -8.5t8.5 19.5l58 392h202l-173 -1181h-198l17 111q-29 -27 -66.5 -56.5t-87.5 -50t-118 -20.5zM52 0l18 124h736l-19 -124h-735zM465 386
q50 0 91.5 23t68.5 58.5t32 74.5l52 359q-30 41 -66 63.5t-87 22.5q-86 0 -153 -73.5t-90 -230.5q-15 -106 1 -171.5t56 -95.5t95 -30zM527 1214l17 114h551l-18 -114h-550z" />
    <glyph glyph-name="Euro" unicode="&#x20ac;" horiz-adv-x="1217" 
d="M658 -20q-179 0 -298 93t-168 262t-16 396q34 227 131.5 392t242 254t321.5 89q121 0 218 -47.5t156 -129.5l-184 -135q-37 46 -83 79.5t-116 33.5q-155 0 -260.5 -130t-146.5 -409q-27 -184 -2.5 -303.5t93 -177.5t173.5 -58q46 0 93.5 16.5t89 43t72.5 56.5l108 -146
q-82 -77 -193 -128t-231 -51zM-11 494l21 140h792l-20 -139zM37 816l20 139l794 1l-21 -139z" />
    <glyph glyph-name="uni20B9" unicode="&#x20b9;" horiz-adv-x="1195" 
d="M604 0l-129 651h-424l27 182h390q147 0 223.5 58t95.5 187q17 118 -40.5 174.5t-185.5 56.5h-413l19 137h452q239 0 358 -97t92 -278q-15 -103 -62.5 -177t-115 -122.5t-140.5 -73.5q-15 -5 -9 -26l158 -672h-296zM107 1015l18 129l1111 1l-20 -129zM151 1318l18 128
l1110 1l-18 -128z" />
    <glyph glyph-name="uni20BA" unicode="&#x20ba;" horiz-adv-x="1190" 
d="M169 0l212 1446h273l-180 -1239h75q117 2 217.5 82.5t182.5 244.5l207 -47q-50 -105 -118 -193.5t-157 -154.5t-201.5 -102.5t-250.5 -36.5h-260zM77 383l-26 138l771 275l29 -138zM103 701l-28 138l774 275l29 -137z" />
    <glyph glyph-name="uni2113" unicode="&#x2113;" horiz-adv-x="1057" 
d="M497 -16q-164 0 -241.5 88.5t-77.5 261.5l-106 -75l-44 140l170 118l68 476q35 244 157 358.5t285 114.5q112 0 174 -45.5t83.5 -123t7.5 -171.5q-15 -107 -65.5 -200.5t-125 -176.5t-164 -160.5t-181.5 -152.5q-24 -150 1.5 -210t115.5 -60q73 0 141.5 40t147.5 132
l79 -93q-26 -45 -63.5 -91t-88.5 -84.5t-119 -62t-154 -23.5zM461 657q57 49 114.5 105.5t108 122t85.5 137.5t46 149q10 68 -12 104.5t-80 36.5q-75 0 -131.5 -74.5t-83.5 -270.5z" />
    <glyph glyph-name="uni2116" unicode="&#x2116;" horiz-adv-x="2265" 
d="M102 0l213 1446h234l524 -1033l149 1033h241l-213 -1446h-215l-538 1061l-155 -1061h-240zM1923 795q-136 0 -202 93.5t-46 238.5q15 101 63 177t121 118.5t160 42.5q134 0 201.5 -94.5t46.5 -243.5q-13 -97 -60.5 -172t-120 -117.5t-163.5 -42.5zM1939 908q71 0 115 58
t59 166q15 106 -12.5 163t-97.5 57q-71 0 -114 -57t-58 -163q-16 -108 11.5 -166t96.5 -58z" />
    <glyph glyph-name="uni2117" unicode="&#x2117;" horiz-adv-x="1588" 
d="M709 -20q-147 0 -268 57.5t-204 159.5t-119 237t-13 290q22 153 97 287.5t188 236.5t251 160t285 58t268 -58t204 -160t119 -236.5t13 -287.5q-23 -155 -98.5 -290t-188.5 -237t-250 -159.5t-284 -57.5zM731 126q119 0 226.5 41.5t195 120t146 189t78.5 247.5
q20 135 -6 245t-90.5 189.5t-160.5 122.5t-215 43q-121 0 -229 -43t-195 -122.5t-145 -189.5t-78 -245q-27 -182 26.5 -316.5t169.5 -208t277 -73.5zM496 334l114 774h315q80 0 141.5 -24.5t92 -76.5t18.5 -134q-19 -124 -103.5 -187.5t-203.5 -63.5h-174l-42 -288h-158z
M714 742h156q55 0 95 31t50 93q9 68 -25.5 94t-90.5 26h-149z" />
    <glyph glyph-name="uni2120" unicode="&#x2120;" horiz-adv-x="1975" 
d="M927 0l132 904h215l122 -691l327 691h212l-131 -904h-152l103 709l-328 -709h-124l-122 704l-103 -704h-151zM363 -12q-86 0 -160 28t-119 86.5t-42 147.5h158q4 -68 54.5 -104.5t125.5 -36.5q81 0 141.5 33.5t68.5 96.5q8 56 -29.5 86t-102.5 45l-154 36
q-97 21 -145.5 80.5t-35.5 157.5q11 83 63 143.5t131.5 94t172.5 33.5q102 0 171 -39t102.5 -100.5t27.5 -129.5h-154q3 54 -18 86t-59 46t-86 14t-89 -16t-67.5 -45t-31.5 -70q-6 -44 18 -71t98 -45l151 -36q73 -16 114.5 -46t59.5 -68.5t20.5 -78.5t-2.5 -76
q-10 -71 -61 -128t-133 -90.5t-188 -33.5z" />
    <glyph glyph-name="trademark" unicode="&#x2122;" horiz-adv-x="1840" 
d="M792 0l132 904h215l123 -691l326 691h213l-132 -904h-152l103 709l-328 -709h-124l-122 704l-102 -704h-152zM230 0l111 767h-268l21 137h677l-20 -137h-260l-112 -767h-149z" />
    <glyph glyph-name="uni2126" unicode="&#x2126;" horiz-adv-x="1483" 
d="M64 0l32 214h279q-23 22 -57 59t-70 89.5t-64.5 121.5t-40 154.5t2.5 188.5q20 128 80 249t156.5 217.5t224.5 153.5t282 57q157 0 267 -59t175.5 -157t88 -218t4.5 -241q-14 -95 -44.5 -175.5t-80 -152t-121 -142t-168.5 -145.5h285l-32 -214h-539l29 191q50 34 110 87
t117.5 126.5t102 171t62.5 222.5q16 111 5 203t-47.5 159t-98 103.5t-147.5 36.5q-84 0 -157 -35.5t-131 -102.5t-97 -160.5t-56 -209.5q-19 -133 1 -241t75 -197t142 -163l-29 -191h-541z" />
    <glyph glyph-name="uni2153" unicode="&#x2153;" horiz-adv-x="1733" 
d="M206 552l102 701h-161l13 91q115 0 166 30.5t65 87.5h101l-134 -910h-152zM277 -8l-145 2l1152 1468h143zM1243 -20q-150 1 -225.5 77.5t-59.5 208.5h147q2 -80 45 -119.5t113 -39.5q88 0 144.5 40.5t66.5 104.5q9 70 -39.5 108.5t-129.5 39.5l-82 3l18 124l76 3
q52 2 93.5 20.5t68.5 50t33 69.5q7 53 -34 88.5t-119 35.5q-43 0 -84 -16.5t-71 -52.5t-41 -95h-146q13 94 65 157.5t130 96t167 32.5q96 0 166 -26.5t105 -80t24 -133.5q-10 -67 -56.5 -119.5t-135.5 -83.5q50 -14 87.5 -44t56 -75t10.5 -105q-12 -86 -68 -146.5
t-141 -91.5t-184 -31z" />
    <glyph glyph-name="uni2154" unicode="&#x2154;" horiz-adv-x="2034" 
d="M67 558l11 82l7 42q11 82 52 137.5t99.5 95.5t121.5 71.5t120 62.5t96 70t46 93q9 62 -26.5 100.5t-105.5 38.5q-74 0 -129 -45t-75 -126h-147q19 124 114 212t260 88q141 0 213.5 -73.5t54.5 -193.5q-11 -81 -51.5 -136t-97 -93t-118.5 -67.5t-117.5 -58t-93.5 -65.5
t-45 -91l-2 -13h454l-19 -131h-622zM578 -8l-145 2l1152 1468h143zM1544 -20q-150 1 -225.5 77.5t-59.5 208.5h147q2 -80 45 -119.5t113 -39.5q88 0 144.5 40.5t66.5 104.5q9 70 -39.5 108.5t-129.5 39.5l-82 3l18 124l76 3q52 2 93.5 20.5t68.5 50t33 69.5q7 53 -34 88.5
t-119 35.5q-43 0 -84 -16.5t-71 -52.5t-41 -95h-146q13 94 65 157.5t130 96t167 32.5q96 0 166 -26.5t105 -80t24 -133.5q-10 -67 -56.5 -119.5t-135.5 -83.5q50 -14 87.5 -44t56 -75t10.5 -105q-12 -86 -68 -146.5t-141 -91.5t-184 -31z" />
    <glyph glyph-name="oneeighth" unicode="&#x215b;" horiz-adv-x="1745" 
d="M206 552l102 701h-161l13 91q115 0 166 30.5t65 87.5h101l-134 -910h-152zM277 -8l-145 2l1152 1468h143zM1263 -21q-156 0 -241 71.5t-68 191.5q7 53 39 100.5t76 80.5t87 41q-53 26 -84 75.5t-21 122.5q17 121 114.5 186.5t228.5 65.5q132 0 210.5 -65.5t61.5 -186.5
q-10 -73 -54.5 -122.5t-105.5 -75.5q42 -8 76 -41t53 -80.5t11 -100.5q-16 -120 -121 -191.5t-262 -71.5zM1279 97q86 0 141.5 40t64.5 108q10 67 -34 109.5t-129 42.5t-141 -42.5t-66 -109.5q-9 -68 35.5 -108t128.5 -40zM1340 525q68 0 117 37.5t57 102.5q10 66 -28.5 104
t-106.5 38q-67 0 -116.5 -38.5t-57.5 -103.5q-10 -65 28.5 -102.5t106.5 -37.5z" />
    <glyph glyph-name="threeeighths" unicode="&#x215c;" horiz-adv-x="1988" 
d="M393 544q-150 1 -225.5 77.5t-59.5 208.5h147q2 -80 45 -119.5t113 -39.5q88 0 144.5 40.5t66.5 104.5q9 70 -39.5 108.5t-129.5 39.5l-82 3l18 124l76 3q52 2 93.5 20.5t68.5 50t33 69.5q7 53 -34 88.5t-119 35.5q-43 0 -84 -16.5t-71 -52.5t-41 -95h-146
q13 94 65 157.5t130 96t167 32.5q96 0 166 -26.5t105 -80t24 -133.5q-10 -67 -56.5 -119.5t-135.5 -83.5q50 -15 87.5 -44.5t56 -74.5t10.5 -105q-12 -86 -68 -146.5t-141 -91.5t-184 -31zM520 -8l-145 2l1152 1468h143zM1506 -21q-156 0 -241 71.5t-68 191.5q7 53 39 100.5
t76 80.5t87 41q-53 26 -84 75.5t-21 122.5q17 121 114.5 186.5t228.5 65.5q132 0 210.5 -65.5t61.5 -186.5q-10 -73 -54.5 -122.5t-105.5 -75.5q42 -8 76 -41t53 -80.5t11 -100.5q-16 -120 -121 -191.5t-262 -71.5zM1522 97q86 0 141.5 40t64.5 108q10 67 -34 109.5
t-129 42.5t-141 -42.5t-66 -109.5q-9 -68 35.5 -108t128.5 -40zM1583 525q68 0 117 37.5t57 102.5q10 66 -28.5 104t-106.5 38q-67 0 -116.5 -38.5t-57.5 -103.5q-10 -65 28.5 -102.5t106.5 -37.5z" />
    <glyph glyph-name="fiveeighths" unicode="&#x215d;" horiz-adv-x="1979" 
d="M416 538q-127 0 -215 62.5t-113 160.5l132 66q24 -71 71 -117t129 -46q85 0 143 49t69 131q11 77 -33.5 126t-122.5 49q-45 0 -85.5 -13.5t-93.5 -59.5q-7 -2 -9.5 -2t-9.5 3l-108 48l105 467h549l-24 -129h-420l-55 -252q52 34 101 49.5t105 15.5q85 0 148.5 -34.5
t95 -100.5t17.5 -162q-19 -142 -121.5 -226.5t-254.5 -84.5zM511 -8l-145 2l1152 1468h143zM1497 -21q-156 0 -241 71.5t-68 191.5q7 53 39 100.5t76 80.5t87 41q-53 26 -84 75.5t-21 122.5q17 121 114.5 186.5t228.5 65.5q132 0 210.5 -65.5t61.5 -186.5
q-10 -73 -54.5 -122.5t-105.5 -75.5q42 -8 76 -41t53 -80.5t11 -100.5q-16 -120 -121 -191.5t-262 -71.5zM1513 97q86 0 141.5 40t64.5 108q10 67 -34 109.5t-129 42.5t-141 -42.5t-66 -109.5q-9 -68 35.5 -108t128.5 -40zM1574 525q68 0 117 37.5t57 102.5q10 66 -28.5 104
t-106.5 38q-67 0 -116.5 -38.5t-57.5 -103.5q-10 -65 28.5 -102.5t106.5 -37.5z" />
    <glyph glyph-name="seveneighths" unicode="&#x215e;" horiz-adv-x="1809" 
d="M202 550q21 78 75.5 206t143.5 279t213 296h-475l18 129h637l-20 -129q-65 -74 -133.5 -176.5t-130 -213.5t-106 -213.5t-59.5 -177.5h-163zM341 -8l-145 2l1152 1468h143zM1327 -21q-156 0 -241 71.5t-68 191.5q7 53 39 100.5t76 80.5t87 41q-53 26 -84 75.5t-21 122.5
q17 121 114.5 186.5t228.5 65.5q132 0 210.5 -65.5t61.5 -186.5q-10 -73 -54.5 -122.5t-105.5 -75.5q42 -8 76 -41t53 -80.5t11 -100.5q-16 -120 -121 -191.5t-262 -71.5zM1343 97q86 0 141.5 40t64.5 108q10 67 -34 109.5t-129 42.5t-141 -42.5t-66 -109.5
q-9 -68 35.5 -108t128.5 -40zM1404 525q68 0 117 37.5t57 102.5q10 66 -28.5 104t-106.5 38q-67 0 -116.5 -38.5t-57.5 -103.5q-10 -65 28.5 -102.5t106.5 -37.5z" />
    <glyph glyph-name="partialdiff" unicode="&#x2202;" horiz-adv-x="1159" 
d="M473 -20q-144 0 -238.5 62t-134.5 168.5t-21 239.5q19 132 88 234.5t179 161t252 58.5q100 0 153 -27t103 -67q18 -14 23.5 -8t7.5 17q13 96 3.5 179.5t-45.5 146.5t-101 98.5t-161 35.5q-95 0 -159.5 -29.5t-118.5 -62.5l-46 146q34 31 95 61.5t139 51t165 20.5
q163 0 274 -81.5t155.5 -247t8.5 -417.5q-34 -228 -116 -394t-209.5 -256t-295.5 -90zM489 161h2q75 0 141 48t116.5 133.5t77.5 198.5q7 31 7 44t-8 26q-26 49 -88 85.5t-137 36.5q-73 0 -134.5 -38.5t-103 -105t-54.5 -150.5q-12 -83 9 -145.5t66 -97.5t106 -35z" />
    <glyph glyph-name="emptyset" unicode="&#x2205;" horiz-adv-x="1147" 
d="M141 259l-72 91l980 823l68 -91zM534 290q-116 0 -202.5 59t-128.5 158.5t-25 220.5q13 90 57.5 169t111.5 139t148 94t168 34q116 0 203 -59t129 -158t25 -219q-18 -121 -90 -220.5t-176 -158.5t-220 -59zM553 410q84 0 159 43t127 115t65 160q12 86 -18.5 158
t-93.5 115t-147 43t-159 -43t-126 -115t-64 -158q-13 -88 17 -160t93 -115t147 -43z" />
    <glyph glyph-name="uni2206" unicode="&#x2206;" horiz-adv-x="1430" 
d="M-38 0l902 1446l458 -1446h-1360zM342 208h670l-218 769z" />
    <glyph glyph-name="product" unicode="&#x220f;" horiz-adv-x="1312" 
d="M135 0l182 1242h-179l30 204h1228l-30 -204h-181l-181 -1242h-248l181 1242h-373l-180 -1242h-249z" />
    <glyph glyph-name="summation" unicode="&#x2211;" horiz-adv-x="1071" 
d="M-17 0l22 152l486 567l-298 558l25 169h894l-30 -199h-567l279 -503l-465 -535h637l-31 -209h-952z" />
    <glyph glyph-name="minus" unicode="&#x2212;" horiz-adv-x="1115" 
d="M136 636l27 181l875 1l-27 -181z" />
    <glyph glyph-name="uni2215" unicode="&#x2215;" horiz-adv-x="1173" 
d="M166 -8l-148 2l1052 1468h144z" />
    <glyph glyph-name="uni2219" unicode="&#x2219;" horiz-adv-x="666" 
d="M334 593q-55 0 -89 41.5t-25 99.5t54.5 99t102.5 41q56 0 89.5 -41t23.5 -99q-7 -58 -53 -99.5t-103 -41.5z" />
    <glyph glyph-name="radical" unicode="&#x221a;" horiz-adv-x="1281" 
d="M408 -322l-175 859l-158 -59l-30 144l355 126l161 -834l676 1737h203l-785 -1973h-247z" />
    <glyph glyph-name="infinity" unicode="&#x221e;" horiz-adv-x="1484" 
d="M358 195q-83 0 -147.5 42t-96 119t-16.5 180t69.5 180t136 119.5t178.5 42.5q72 0 119.5 -23t82 -62t70.5 -88q13 -16 21 -15.5t24 15.5q38 38 84.5 78t106.5 67.5t135 27.5q87 0 150.5 -40.5t93 -114.5t14.5 -175l-1 -3q-17 -111 -72.5 -189t-135 -119.5t-166.5 -41.5
q-71 0 -119 25.5t-84 68.5t-71 94q-8 12 -14 13.5t-20 -13.5q-15 -14 -45 -44t-73.5 -63.5t-99.5 -57t-124 -23.5zM396 357h5q42 0 83.5 22t77 53.5t60.5 60.5q20 25 21 37.5t-12 41.5q-35 70 -78 110.5t-106 40.5q-71 0 -123 -50.5t-64 -130.5q-12 -82 28 -133.5t108 -51.5
zM1043 357q50 0 87.5 27.5t60.5 69.5t29 86q11 72 -23 127.5t-106 55.5h-2q-64 0 -121 -47t-106 -97q-20 -22 -19.5 -41t8.5 -34q35 -65 71.5 -96.5t68 -41t52.5 -9.5z" />
    <glyph glyph-name="integral" unicode="&#x222b;" horiz-adv-x="890" 
d="M113 -343q-75 0 -121 13t-85 40l84 206q31 -20 62.5 -31.5t75.5 -11.5q59 0 103.5 47.5t61.5 166.5q20 139 32.5 287t21.5 295.5t20 286.5t28 259q34 227 138.5 341.5t270.5 114.5q76 0 124 -13.5t84 -40.5l-81 -206q-33 20 -65 32t-77 12q-61 0 -105.5 -48t-62.5 -162
q-20 -142 -32.5 -290t-21.5 -294t-20 -283t-28 -256q-23 -155 -77.5 -258.5t-137.5 -155t-192 -51.5z" />
    <glyph glyph-name="approxequal" unicode="&#x2248;" horiz-adv-x="1153" 
d="M222 738l-51 128q74 67 146.5 113.5t163.5 46.5q57 0 99.5 -17.5t79.5 -40t74.5 -39.5t84.5 -17q70 0 124.5 38.5t93.5 88.5l52 -128q-54 -73 -130.5 -115.5t-159.5 -42.5q-56 0 -99 17t-79.5 40t-75.5 40t-88 17q-73 0 -129.5 -40t-105.5 -89zM162 328l-51 129
q74 67 146.5 113t163.5 46q57 0 99.5 -17.5t79.5 -40t74.5 -40t84.5 -17.5q70 0 124.5 39t93.5 89l51 -127q-52 -73 -128.5 -116t-161.5 -43q-57 0 -100 17.5t-79.5 40t-75 40t-87.5 17.5q-73 0 -130 -40.5t-104 -89.5z" />
    <glyph glyph-name="notequal" unicode="&#x2260;" horiz-adv-x="1120" 
d="M243 90l552 1191h132l-546 -1191h-138zM167 828l27 181l875 1l-27 -181zM100 376l27 182l875 1l-27 -182z" />
    <glyph glyph-name="lessequal" unicode="&#x2264;" horiz-adv-x="1116" 
d="M971 426l-803 347l32 208l905 348l-32 -216l-621 -237l550 -235zM59 85l27 181l875 -1l-28 -181z" />
    <glyph glyph-name="greaterequal" unicode="&#x2265;" horiz-adv-x="1119" 
d="M122 426l31 215l620 235l-551 237l32 216l803 -348l-30 -208zM59 84l27 181l875 1l-27 -181z" />
    </font>
</defs>
</svg>
